<?xml version="1.0" standalone="no"?>
<!DOCTYPE svg PUBLIC "-//W3C//DTD SVG 1.1//EN" "http://www.w3.org/Graphics/SVG/1.1/DTD/svg11.dtd" >
<svg xmlns="http://www.w3.org/2000/svg" xmlns:xlink="http://www.w3.org/1999/xlink" version="1.1">
<metadata>
Created by FontForge 20201107 at Fri Mar 30 15:28:44 2012
 By 
(c) 2011 Microsoft Corporation. All rights reserved.
</metadata>
<defs>
<font id="Verdana-BoldItalic" horiz-adv-x="0" >
  <font-face 
    font-family="Verdana"
    font-weight="700"
    font-style="italic"
    font-stretch="normal"
    units-per-em="2048"
    panose-1="2 11 8 4 3 5 4 11 2 4"
    ascent="1638"
    descent="-410"
    x-height="1123"
    cap-height="1489"
    bbox="-1100 -621 3596 2195"
    underline-thickness="211"
    underline-position="-243"
    slope="-13"
    unicode-range="U+0020-FFFD"
  />
<missing-glyph horiz-adv-x="2048" 
d="M256 0v1536h1536v-1536h-1536zM384 128h1280v1280h-1280v-1280z" />
    <glyph glyph-name=".notdef" horiz-adv-x="2048" 
d="M256 0v1536h1536v-1536h-1536zM384 128h1280v1280h-1280v-1280z" />
    <glyph glyph-name="glyph1" 
 />
    <glyph glyph-name="glyph2" horiz-adv-x="700" 
 />
    <glyph glyph-name="space" unicode=" " horiz-adv-x="700" 
 />
    <glyph glyph-name="space" unicode="&#xa0;" horiz-adv-x="700" 
 />
    <glyph glyph-name="exclam" unicode="!" horiz-adv-x="824" 
d="M835 1489l-291 -1060h-326l199 1060h418zM484 0h-404l61 264h404z" />
    <glyph glyph-name="quotedbl" unicode="&#x22;" horiz-adv-x="1203" 
d="M1248 1556l-196 -589h-226l76 589h346zM725 1556l-196 -589h-226l76 589h346z" />
    <glyph glyph-name="numbersign" unicode="#" horiz-adv-x="1776" 
d="M1677 905h-316l-127 -311h282l-38 -240h-342l-147 -354h-241l145 354h-264l-145 -354h-245l146 354h-270l38 240h330l126 311h-293l38 239h353l140 345h245l-140 -345h263l141 345h245l-141 -345h255zM1121 907h-268l-130 -316h269z" />
    <glyph glyph-name="dollar" unicode="$" horiz-adv-x="1456" 
d="M691 2l-84 -363h-174l83 357q-116 1 -255 27t-213 65l68 292h45q70 -45 182 -77t239 -42l65 284q-231 54 -333 126t-102 198q0 208 154.5 326t460.5 148l54 233h174l-54 -231q91 -4 209.5 -26t183.5 -51l-67 -288h-44q-63 41 -149 68t-193 34l-61 -264
q231 -51 335.5 -126t104.5 -209q0 -213 -165 -336t-464 -145zM783 1082q-94 -7 -147.5 -43t-53.5 -92q0 -39 39 -64.5t107 -37.5zM940 406q0 45 -29.5 71t-104.5 41l-58 -253q89 9 140.5 43t51.5 98z" />
    <glyph glyph-name="percent" unicode="%" horiz-adv-x="2605" 
d="M1146 1161q0 -278 -142 -446t-382 -168q-203 0 -306.5 92t-103.5 273q0 277 143.5 441t380.5 164q201 0 305.5 -91t104.5 -265zM853 1140q0 82 -34 123.5t-103 41.5q-90 0 -150.5 -108t-60.5 -272q0 -83 34 -124.5t103 -41.5q96 0 153.5 113.5t57.5 267.5zM2457 583
q0 -278 -142 -446t-382 -168q-203 0 -306.5 92t-103.5 273q0 277 143.5 441t380.5 164q201 0 305.5 -91t104.5 -265zM2164 562q0 82 -34 123.5t-103 41.5q-90 0 -150.5 -108t-60.5 -272q0 -83 34 -124.5t103 -41.5q96 0 153.5 113.5t57.5 267.5zM1993 1489l-1043 -1489h-271
l1043 1489h271z" />
    <glyph glyph-name="ampersand" unicode="&#x26;" horiz-adv-x="1766" 
d="M1682 0h-476l-113 126q-134 -89 -260 -123t-228 -34q-242 0 -383.5 104t-141.5 281q0 86 28 158.5t79 132.5q49 58 118.5 104t149.5 85q-76 68 -109 134t-33 141q0 84 38 158t112 131q71 55 183.5 88t248.5 33q223 0 350 -75.5t127 -207.5q0 -60 -25 -123t-75 -115
q-51 -54 -131 -100.5t-197 -81.5l249 -269l69 322h373l-24 -111q-27 -123 -87.5 -225.5t-148.5 -179.5l311 -333zM990 1186q0 57 -31.5 89.5t-96.5 32.5q-72 0 -120.5 -40.5t-48.5 -114.5q0 -48 35.5 -102t97.5 -110q73 49 118.5 114t45.5 131zM953 295l-347 379
q-58 -48 -88 -103t-30 -117q0 -102 62.5 -165.5t181.5 -63.5q61 0 111.5 15.5t109.5 54.5z" />
    <glyph glyph-name="quotesingle" unicode="'" horiz-adv-x="680" 
d="M725 1556l-196 -589h-226l76 589h346z" />
    <glyph glyph-name="parenleft" unicode="(" horiz-adv-x="1113" 
d="M1168 1527q-146 -113 -270 -249.5t-215 -289.5q-92 -155 -143.5 -328t-51.5 -354q0 -205 54 -367.5t186 -321.5v-29h-354q-113 165 -167.5 321t-54.5 360q0 350 171.5 688t474.5 599h370v-29z" />
    <glyph glyph-name="parenright" unicode=")" horiz-adv-x="1113" 
d="M963 875q0 -350 -171.5 -688t-474.5 -599h-370v29q146 113 270 249.5t215 289.5q92 155 143.5 328t51.5 354q0 205 -54 367.5t-186 321.5v29h354q113 -165 167.5 -321t54.5 -360z" />
    <glyph glyph-name="asterisk" unicode="*" horiz-adv-x="1456" 
d="M1353 836l-111 -165l-320 218l11 -355h-213l8 346l-314 -210l-109 166l355 209l-354 211l108 167l313 -213l-7 346h212l-8 -347l317 211l111 -166l-358 -208z" />
    <glyph glyph-name="plus" unicode="+" horiz-adv-x="1776" 
d="M1580 528h-533v-528h-274v528h-533v268h533v528h274v-528h533v-268z" />
    <glyph glyph-name="comma" unicode="," horiz-adv-x="740" 
d="M584 393l-538 -763h-223l371 763h390z" />
    <glyph glyph-name="hyphen" unicode="-" horiz-adv-x="983" 
d="M863 518h-763l66 288h763z" />
    <glyph glyph-name="hyphen" unicode="&#xad;" horiz-adv-x="983" 
d="M863 518h-763l66 288h763z" />
    <glyph glyph-name="period" unicode="." horiz-adv-x="740" 
d="M429 0h-376l90 393h376z" />
    <glyph glyph-name="slash" unicode="/" horiz-adv-x="1412" 
d="M1403 1556l-1125 -1880h-317l1122 1880h320z" />
    <glyph glyph-name="zero" unicode="0" horiz-adv-x="1456" 
d="M1413 1031q0 -206 -48 -402.5t-141 -339.5q-106 -160 -247.5 -240t-322.5 -80q-261 0 -400 118.5t-139 369.5q0 214 47 403.5t142 338.5q95 148 240.5 234t332.5 86q267 0 401.5 -122.5t134.5 -365.5zM1027 1016q0 117 -42.5 173t-126.5 56q-79 0 -148.5 -71t-119.5 -203
q-44 -115 -66.5 -251.5t-22.5 -247.5q0 -118 42 -173.5t132 -55.5q86 0 152 77.5t111 196.5q42 111 65.5 245t23.5 254z" />
    <glyph glyph-name="one" unicode="1" horiz-adv-x="1456" 
d="M1131 0h-994l60 260h313l181 787h-313l56 243q69 0 139.5 9t117.5 29q52 23 90 62.5t56 102.5h332l-284 -1233h306z" />
    <glyph glyph-name="two" unicode="2" horiz-adv-x="1456" 
d="M1224 0h-1169l57 246q166 106 312 209t247 185q156 126 229 226.5t73 192.5q0 87 -58 128.5t-160 41.5q-104 0 -212 -35.5t-206 -99.5h-32l74 331q74 30 223 61.5t282 31.5q241 0 369 -89t128 -265q0 -182 -96 -321.5t-305 -304.5q-103 -81 -196.5 -145t-162.5 -108h669z
" />
    <glyph glyph-name="three" unicode="3" horiz-adv-x="1456" 
d="M1094 112q-99 -71 -224.5 -107.5t-280.5 -36.5q-181 0 -323 33.5t-232 79.5l70 324l39 -1q91 -65 204 -104t223 -39q161 0 251.5 60.5t90.5 172.5q0 47 -17.5 77t-56.5 47q-42 19 -106 24.5t-144 5.5h-82l57 264h85q205 0 286.5 44.5t81.5 135.5q0 72 -68.5 106
t-189.5 34q-104 0 -218 -33t-204 -78l-37 1l69 321q89 30 221.5 53.5t259.5 23.5q128 0 229 -19.5t173 -58.5q76 -41 117.5 -104t41.5 -158q0 -91 -31.5 -160.5t-84.5 -115.5q-51 -45 -117 -74t-129 -43l-3 -14q109 -18 182.5 -87t73.5 -179q0 -124 -56 -225.5t-151 -169.5z
" />
    <glyph glyph-name="four" unicode="4" horiz-adv-x="1456" 
d="M1325 343h-203l-80 -347h-367l80 347h-721l65 282l896 864h391l-201 -874h203zM818 615l122 528l-545 -528h423z" />
    <glyph glyph-name="five" unicode="5" horiz-adv-x="1456" 
d="M1101 112q-101 -71 -236.5 -107t-288.5 -36q-186 0 -317.5 26.5t-210.5 63.5l76 329h42q97 -63 193 -94.5t204 -31.5q162 0 260.5 60t98.5 185q0 95 -81.5 142.5t-249.5 47.5q-74 0 -157 -14t-150 -34h-44l194 840h1059l-66 -285h-698l-56 -243q14 1 36 1h53
q114 0 214 -21t178 -68t124 -122.5t46 -187.5q0 -153 -60.5 -266t-162.5 -185z" />
    <glyph glyph-name="six" unicode="6" horiz-adv-x="1456" 
d="M684 -32q-123 0 -224.5 29t-174.5 92t-113 162t-40 239q0 225 65.5 412t187.5 325q119 135 297 212.5t391 77.5q80 0 180 -13.5t136 -22.5l-51 -291l-38 2q-23 13 -92.5 33.5t-157.5 20.5q-171 0 -291.5 -85t-183.5 -262q77 39 165.5 65t183.5 26q199 0 314 -103.5
t115 -289.5q0 -271 -190.5 -450t-478.5 -179zM958 539q0 104 -62 151.5t-179 47.5q-51 0 -99 -10.5t-79 -19.5q-11 -42 -19.5 -103t-8.5 -110q0 -140 46 -207t155 -67q101 0 173.5 89.5t72.5 228.5z" />
    <glyph glyph-name="seven" unicode="7" horiz-adv-x="1456" 
d="M1471 1203l-945 -1203h-435l978 1214h-763l64 275h1167z" />
    <glyph glyph-name="eight" unicode="8" horiz-adv-x="1456" 
d="M1443 1185q0 -124 -88 -223.5t-254 -159.5l-1 -6q114 -54 178 -128t64 -188q0 -231 -195 -372.5t-493 -141.5q-273 0 -431.5 100.5t-158.5 273.5q0 151 91.5 257.5t281.5 169.5l1 6q-98 58 -146 122t-48 158q0 96 40.5 178.5t122.5 149.5q80 65 200 103.5t275 38.5
q263 0 412 -92t149 -246zM1058 1125q0 69 -55.5 107.5t-141.5 38.5q-103 0 -165.5 -48.5t-62.5 -120.5q0 -46 26.5 -75.5t84.5 -58.5q28 -14 73.5 -33t106.5 -42q56 51 95 109t39 123zM953 424q0 52 -28 88.5t-119 82.5q-29 15 -88 39.5t-100 42.5q-83 -62 -123 -128
t-40 -138q0 -90 67.5 -140t175.5 -50q100 0 177.5 57t77.5 146z" />
    <glyph glyph-name="nine" unicode="9" horiz-adv-x="1456" 
d="M1387 998q0 -219 -66 -411t-187 -326q-124 -138 -295 -214t-393 -76q-86 0 -184 13.5t-132 22.5l51 291l38 -2q24 -13 89 -33.5t161 -20.5q176 0 296 89t179 258q-91 -44 -164.5 -67.5t-184.5 -23.5q-202 0 -315.5 105t-113.5 288q0 276 195.5 452.5t473.5 176.5
q121 0 222.5 -28.5t176.5 -92.5q75 -65 114 -165t39 -236zM1008 993q0 140 -46 207t-155 67q-101 0 -173.5 -89.5t-72.5 -228.5q0 -104 62 -151.5t179 -47.5q45 0 93 9t85 21q12 49 20 101.5t8 111.5z" />
    <glyph glyph-name="colon" unicode=":" horiz-adv-x="824" 
d="M640 730h-376l90 393h376zM472 0h-376l90 393h376z" />
    <glyph glyph-name="semicolon" unicode=";" horiz-adv-x="824" 
d="M640 730h-376l90 393h376zM623 393l-538 -763h-223l371 763h390z" />
    <glyph glyph-name="semicolon" unicode="&#x37e;" horiz-adv-x="824" 
d="M640 730h-376l90 393h376zM623 393l-538 -763h-223l371 763h390z" />
    <glyph glyph-name="less" unicode="&#x3c;" horiz-adv-x="1776" 
d="M1562 -7l-1336 555v228l1336 555v-287l-935 -383l935 -381v-287z" />
    <glyph glyph-name="equal" unicode="=" horiz-adv-x="1776" 
d="M1549 791h-1278v268h1278v-268zM1549 265h-1278v268h1278v-268z" />
    <glyph glyph-name="greater" unicode="&#x3e;" horiz-adv-x="1776" 
d="M1594 548l-1336 -555v287l935 382l-935 382v287l1336 -555v-228z" />
    <glyph glyph-name="question" unicode="?" horiz-adv-x="1263" 
d="M1291 1161q0 -173 -131 -311.5t-411 -241.5l-49 -208h-352l80 346q224 57 338.5 144t114.5 197q0 80 -54.5 118.5t-155.5 38.5q-79 0 -169.5 -31t-184.5 -85h-40l71 305q81 34 198 60t253 26q235 0 363.5 -94t128.5 -264zM697 264l-61 -264h-404l61 264h404z" />
    <glyph glyph-name="at" unicode="@" horiz-adv-x="1974" 
d="M1639 139h-527v78q-62 -40 -113 -61.5t-136 -21.5q-141 0 -227 98.5t-86 272.5q0 261 148 448t353 187q66 0 119.5 -21t89.5 -55l12 62h232l-159 -816h181q67 111 99 236.5t32 253.5q0 250 -138.5 393.5t-398.5 143.5q-143 0 -278.5 -61.5t-242.5 -173.5
q-105 -109 -167.5 -259.5t-62.5 -322.5q0 -141 43 -247.5t115 -175.5q75 -72 174.5 -108.5t216.5 -36.5q86 0 201.5 17t192.5 39l-28 -194q-97 -21 -190 -32t-202 -11q-328 0 -531.5 196.5t-203.5 531.5q0 201 75.5 384.5t208.5 325.5q131 140 313.5 224.5t389.5 84.5
q328 0 523.5 -199t195.5 -514q0 -178 -64.5 -360.5t-159.5 -305.5zM1127 404l97 499q-31 20 -70 32.5t-90 12.5q-110 0 -186.5 -122.5t-76.5 -301.5q0 -107 36 -153.5t114 -46.5q46 0 89 21t87 59z" />
    <glyph glyph-name="A" unicode="A" horiz-adv-x="1590" 
d="M1451 0h-387l-34 304h-548l-174 -304h-401l893 1489h444zM1001 571l-60 535l-307 -535h367z" />
    <glyph glyph-name="B" unicode="B" horiz-adv-x="1560" 
d="M1499 1152q0 -136 -74.5 -224.5t-227.5 -133.5l-2 -8q121 -35 183.5 -101t62.5 -186q0 -235 -192.5 -367t-544.5 -132h-645l344 1489h543q269 0 411 -88.5t142 -248.5zM1093 1091q0 66 -52 95.5t-144 29.5h-173l-73 -315h175q126 0 196.5 48.5t70.5 141.5zM1050 489
q0 82 -62 118.5t-195 36.5h-201l-86 -371h194q168 0 259 55t91 161z" />
    <glyph glyph-name="C" unicode="C" horiz-adv-x="1482" 
d="M748 -29q-302 0 -466 148.5t-164 425.5q0 219 72.5 397t199.5 308q124 126 297.5 197t364.5 71q154 0 286 -31.5t238 -92.5l-88 -361h-44q-95 102 -189 150t-221 48q-223 0 -367.5 -179t-144.5 -456q0 -178 80 -258t234 -80q138 0 259 55.5t229 141.5h40l-87 -356
q-45 -18 -105 -43.5t-115 -41.5q-72 -21 -134.5 -32t-174.5 -11z" />
    <glyph glyph-name="D" unicode="D" horiz-adv-x="1700" 
d="M1663 908q0 -253 -133 -467t-341 -328q-126 -68 -263 -90.5t-328 -22.5h-539l344 1489h482q213 0 343 -33t210 -89q110 -76 167.5 -189.5t57.5 -269.5zM1261 873q0 102 -38 175.5t-116 118.5q-36 20 -73.5 30.5t-85.5 15.5q-46 4 -105 4h-103h-13l-220 -944h35h124t107 5
q53 5 95.5 16t93.5 37q144 74 221.5 221t77.5 321z" />
    <glyph glyph-name="E" unicode="E" horiz-adv-x="1399" 
d="M1482 1489l-65 -282h-695l-62 -266h645l-66 -283h-645l-87 -376h695l-64 -282h-1079l344 1489h1079z" />
    <glyph glyph-name="F" unicode="F" horiz-adv-x="1332" 
d="M1471 1489l-67 -288h-684l-64 -277h634l-66 -288h-634l-147 -636h-384l344 1489h1068z" />
    <glyph glyph-name="G" unicode="G" horiz-adv-x="1661" 
d="M794 -31q-317 0 -496.5 150t-179.5 426q0 430 277 701.5t703 271.5q161 0 298.5 -27.5t285.5 -104.5l-85 -349h-43q-120 114 -227 158.5t-236 44.5q-131 0 -237 -53.5t-181 -144.5q-71 -86 -111 -204t-40 -247q0 -179 98 -263.5t319 -84.5q22 0 48 1t48 3l68 292h-297
l65 281h687l-170 -735q-133 -46 -283.5 -81t-310.5 -35z" />
    <glyph glyph-name="H" unicode="H" horiz-adv-x="1715" 
d="M1740 1489l-344 -1489h-386l152 658h-565l-152 -658h-386l344 1489h386l-127 -548h565l127 548h386z" />
    <glyph glyph-name="I" unicode="I" horiz-adv-x="1118" 
d="M865 0h-872l61 264h243l222 961h-243l61 264h872l-61 -264h-243l-222 -961h243z" />
    <glyph glyph-name="J" unicode="J" horiz-adv-x="1137" 
d="M950 491q-61 -262 -229 -388t-460 -126q-107 0 -193 7.5t-154 21.5l71 308h36q43 -17 91.5 -33t129.5 -16q153 0 229 73t124 284l137 593h-340l63 274h726z" />
    <glyph glyph-name="K" unicode="K" horiz-adv-x="1579" 
d="M1466 0h-423l-335 603l-155 -135l-108 -468h-386l343 1489h386l-151 -656l672 656h456l-752 -693z" />
    <glyph glyph-name="L" unicode="L" horiz-adv-x="1305" 
d="M1134 0h-1075l344 1489h386l-277 -1201h689z" />
    <glyph glyph-name="M" unicode="M" horiz-adv-x="1941" 
d="M1622 0h-384l225 974l-409 -624h-265l-132 665l-234 -1015h-364l344 1489h441l163 -747l506 747h453z" />
    <glyph glyph-name="N" unicode="N" horiz-adv-x="1734" 
d="M1415 0h-327l-437 1031l-238 -1031h-354l344 1489h430l374 -862l198 862h354z" />
    <glyph glyph-name="O" unicode="O" horiz-adv-x="1741" 
d="M1707 935q0 -183 -62 -360t-180 -309q-129 -144 -301 -220.5t-396 -76.5q-305 0 -477.5 157.5t-172.5 433.5q0 194 66 369t189 308q120 129 297 206t386 77q306 0 478.5 -158t172.5 -427zM1158 427q68 89 106.5 206.5t38.5 270.5q0 160 -76.5 250.5t-218.5 90.5
q-93 0 -177.5 -42.5t-155.5 -129.5q-69 -83 -111 -206.5t-42 -277.5q0 -171 78.5 -258t217.5 -87q96 0 185 47.5t155 135.5z" />
    <glyph glyph-name="P" unicode="P" horiz-adv-x="1501" 
d="M1540 1077q0 -266 -220.5 -429t-616.5 -163h-146l-112 -485h-386l344 1489h535q146 0 254.5 -20t187.5 -69q78 -49 119 -127.5t41 -195.5zM1130 1040q0 87 -63 129t-187 42h-155l-103 -446h138q175 0 272.5 71.5t97.5 203.5z" />
    <glyph glyph-name="Q" unicode="Q" horiz-adv-x="1741" 
d="M1707 935q0 -139 -36 -279t-112 -263q-73 -118 -183 -213.5t-249 -147.5q-4 -14 -6 -33.5t-2 -36.5q0 -68 42.5 -98.5t145.5 -30.5q43 0 100.5 13.5t83.5 25.5h38l-61 -264q-59 -13 -120 -23t-169 -10q-204 0 -308.5 79t-104.5 228q0 25 2.5 46t5.5 41h-3h-3
q-305 0 -477.5 157.5t-172.5 433.5q0 194 66 369t189 308q120 129 297 206t386 77q306 0 478.5 -158t172.5 -427zM1158 427q68 89 106.5 206.5t38.5 270.5q0 160 -76.5 250.5t-218.5 90.5q-93 0 -177.5 -42.5t-155.5 -129.5q-69 -83 -111 -206.5t-42 -277.5
q0 -171 78.5 -258t217.5 -87q96 0 185 47.5t155 135.5z" />
    <glyph glyph-name="R" unicode="R" horiz-adv-x="1602" 
d="M1555 1114q0 -179 -109 -301t-296 -184l344 -629h-429l-280 546h-216l-126 -546h-384l344 1489h581q273 0 422 -92.5t149 -282.5zM1141 1050q0 90 -57.5 127.5t-169.5 37.5h-190l-93 -401h189q153 0 237 62.5t84 173.5z" />
    <glyph glyph-name="S" unicode="S" horiz-adv-x="1455" 
d="M606 -27q-191 0 -340.5 33t-258.5 82l77 357h42q103 -94 242 -145.5t299 -51.5q164 0 241 44.5t77 127.5q0 31 -12.5 53.5t-48.5 44.5t-98.5 43.5t-161.5 49.5q-109 30 -195.5 65t-147.5 83q-61 49 -92.5 113t-31.5 153q0 224 197.5 357.5t540.5 133.5q165 0 311.5 -27
t248.5 -73l-73 -343h-41q-78 72 -205.5 120.5t-278.5 48.5q-148 0 -229 -43t-81 -119q0 -35 12 -58t49 -45q32 -20 101 -43.5t162 -48.5q250 -67 357 -157t107 -244q0 -129 -58 -227t-160 -159q-107 -65 -243 -95t-308 -30z" />
    <glyph glyph-name="T" unicode="T" horiz-adv-x="1396" 
d="M1504 1201h-464l-277 -1201h-386l277 1201h-464l66 288h1314z" />
    <glyph glyph-name="U" unicode="U" horiz-adv-x="1663" 
d="M1710 1489l-216 -930q-73 -309 -247 -448.5t-504 -139.5q-294 0 -445 105.5t-151 319.5q0 44 7 89t15 82l214 922h388l-214 -923q-7 -28 -11.5 -61.5t-4.5 -55.5q0 -94 56.5 -142.5t187.5 -48.5q127 0 205.5 70t112.5 218l219 943h388z" />
    <glyph glyph-name="V" unicode="V" horiz-adv-x="1564" 
d="M1754 1489l-887 -1489h-430l-199 1489h393l119 -1063l593 1063h411z" />
    <glyph glyph-name="W" unicode="W" horiz-adv-x="2311" 
d="M2459 1489l-724 -1489h-412l-64 987l-483 -987h-428l-68 1489h401l3 -1025l500 1025h383l45 -1025l456 1025h391z" />
    <glyph glyph-name="X" unicode="X" horiz-adv-x="1564" 
d="M610 768l-361 721h418l219 -469l435 469h425l-701 -742l365 -747h-419l-223 495l-450 -495h-424z" />
    <glyph glyph-name="Y" unicode="Y" horiz-adv-x="1509" 
d="M1715 1489l-759 -913l-133 -576h-386l129 558l-342 931h411l191 -583l445 583h444z" />
    <glyph glyph-name="Z" unicode="Z" horiz-adv-x="1417" 
d="M1209 0h-1251l64 274l984 932h-733l65 283h1175l-65 -279l-981 -927h808z" />
    <glyph glyph-name="bracketleft" unicode="[" horiz-adv-x="1113" 
d="M695 -392h-668l450 1948h668l-56 -240h-355l-338 -1468h355z" />
    <glyph glyph-name="backslash" unicode="\" horiz-adv-x="1412" 
d="M1127 -324h-297l-461 1880h300z" />
    <glyph glyph-name="bracketright" unicode="]" horiz-adv-x="1113" 
d="M645 -392h-668l56 240h355l338 1468h-355l56 240h668z" />
    <glyph glyph-name="asciicircum" unicode="^" horiz-adv-x="1776" 
d="M1628 642h-320l-388 567l-357 -569h-318l550 849h249z" />
    <glyph glyph-name="underscore" unicode="_" horiz-adv-x="1456" 
d="M1310 -139l-48 -211h-1488l48 211h1488z" />
    <glyph glyph-name="grave" unicode="`" horiz-adv-x="1456" 
d="M1065 1283h-226l-286 373v20h341z" />
    <glyph glyph-name="a" unicode="a" horiz-adv-x="1368" 
d="M843 530q-96 -8 -180 -19t-143 -32q-61 -22 -93 -62t-32 -106q0 -58 42.5 -81.5t123.5 -23.5q53 0 113.5 24.5t113.5 62.5zM748 119q-34 -22 -82 -53t-89 -49q-56 -23 -105 -35t-136 -12q-140 0 -228.5 78.5t-88.5 204.5q0 133 63 225.5t187 147.5q116 52 276.5 75
t347.5 34q1 6 4 19.5t3 30.5q0 71 -66 99.5t-197 28.5q-89 0 -196.5 -30t-161.5 -50h-33l53 266q63 16 195 36t263 20q264 0 387.5 -69t123.5 -214q0 -20 -3.5 -52t-9.5 -56l-176 -764h-358z" />
    <glyph glyph-name="b" unicode="b" horiz-adv-x="1432" 
d="M1367 764q0 -153 -49.5 -297t-135.5 -251q-88 -109 -206 -173.5t-261 -64.5q-94 0 -168.5 19t-132.5 59l-27 -56h-347l359 1556h362l-127 -550q97 67 184.5 107.5t195.5 40.5q174 0 263.5 -103.5t89.5 -286.5zM986 697q0 94 -41 143t-142 49q-53 0 -104 -18.5t-108 -48.5
l-130 -564q35 -14 74 -22.5t88 -8.5q167 0 265 131.5t98 338.5z" />
    <glyph glyph-name="c" unicode="c" horiz-adv-x="1205" 
d="M620 -30q-115 0 -215.5 28.5t-175.5 88.5q-73 59 -114 148t-41 206q0 151 57.5 280.5t161.5 226.5q102 95 249 150.5t318 55.5q103 0 204.5 -23t188.5 -67l-76 -307h-51q-59 71 -133.5 105.5t-167.5 34.5q-170 0 -273 -120.5t-103 -300.5q0 -125 63.5 -187t197.5 -62
q104 0 189.5 42.5t146.5 94.5h51l-76 -307q-108 -47 -189.5 -67t-211.5 -20z" />
    <glyph glyph-name="d" unicode="d" horiz-adv-x="1432" 
d="M1494 1556l-360 -1556h-362l27 117q-52 -33 -91.5 -59.5t-87.5 -48.5q-45 -20 -88.5 -30t-104.5 -10q-163 0 -260.5 106t-97.5 301q0 160 51.5 300.5t141.5 248.5q88 105 208 167t251 62q92 0 160 -18.5t140 -57.5l111 478h362zM971 861q-29 14 -76 25.5t-83 11.5
q-86 0 -155 -38t-117 -104q-43 -59 -68 -150.5t-25 -176.5q0 -101 47 -147t143 -46q49 0 103.5 22t103.5 52z" />
    <glyph glyph-name="e" unicode="e" horiz-adv-x="1360" 
d="M949 706q3 18 4.5 33t1.5 31q0 79 -49 121t-141 42q-111 0 -186.5 -60t-114.5 -167h485zM674 -30q-287 0 -443 127t-156 351q0 153 51 281t147 225q92 94 230 149t303 55q251 0 378.5 -101.5t127.5 -299.5q0 -68 -13.5 -133t-35.5 -129h-834v-11.5v-11.5q0 -117 82 -183
t251 -66q118 0 223.5 40t183.5 89h40l-67 -289q-105 -46 -221 -69.5t-247 -23.5z" />
    <glyph glyph-name="f" unicode="f" horiz-adv-x="865" 
d="M676 1123h278l-54 -237h-266l-205 -886h-362l205 886h-154l54 237h154l7 29q46 203 168 308.5t361 105.5q88 0 153 -5.5t112 -14.5l-59 -254h-27q-23 8 -65.5 16.5t-78.5 8.5q-100 0 -145.5 -39t-73.5 -147z" />
    <glyph glyph-name="g" unicode="g" horiz-adv-x="1432" 
d="M1393 1123l-226 -994q-37 -160 -105 -266t-165 -169q-100 -65 -217 -91t-263 -26q-121 0 -232 14.5t-187 33.5l55 276h44q83 -32 168 -51t151 -19q95 0 165 17.5t110 50.5q43 35 68.5 86t41.5 125l5 21q-78 -53 -155 -84t-174 -31q-189 0 -295.5 95t-106.5 287
q0 331 187 543.5t454 212.5q96 0 174.5 -23t126.5 -58l25 50h351zM971 863q-29 13 -76.5 24.5t-83.5 11.5q-161 0 -259 -121t-98 -311q0 -86 42 -134t151 -48q53 0 107.5 20.5t102.5 48.5z" />
    <glyph glyph-name="h" unicode="h" horiz-adv-x="1459" 
d="M1356 869q0 -24 -4 -62t-13 -76l-169 -731h-364l129 557q14 64 22 108t8 79q0 67 -33.5 96.5t-121.5 29.5q-43 0 -99 -18.5t-125 -55.5l-184 -796h-362l359 1556h362l-128 -557q110 73 202 114t202 41q153 0 236 -74.5t83 -210.5z" />
    <glyph glyph-name="i" unicode="i" horiz-adv-x="700" 
d="M662 1123l-260 -1123h-362l260 1123h362zM772 1556l-63 -273h-382l63 273h382z" />
    <glyph glyph-name="j" unicode="j" horiz-adv-x="825" 
d="M787 1123l-259 -1119q-46 -196 -178.5 -311.5t-339.5 -115.5q-101 0 -175 8t-115 18l59 258h28q33 -12 66.5 -18t74.5 -6q95 1 149 50.5t81 168.5l190 823h-213l57 244h575zM884 1556l-63 -273h-382l63 273h382z" />
    <glyph glyph-name="k" unicode="k" horiz-adv-x="1374" 
d="M1245 0h-379l-221 496l-159 -142l-83 -354h-362l359 1556h362l-214 -929l502 496h415l-520 -489z" />
    <glyph glyph-name="l" unicode="l" horiz-adv-x="700" 
d="M762 1556l-360 -1556h-362l360 1556h362z" />
    <glyph glyph-name="m" unicode="m" horiz-adv-x="2167" 
d="M2065 873q0 -31 -4.5 -67t-13.5 -75l-169 -731h-364l130 561q13 58 23.5 111t10.5 86q0 58 -32 85t-114 27q-39 0 -88.5 -18.5t-119.5 -55.5l-184 -796h-364l130 561q11 49 22 106t11 87q0 61 -30.5 88.5t-113.5 27.5q-43 0 -94 -20t-115 -54l-184 -796h-362l260 1123
h362l-29 -124q110 73 198.5 114t191.5 41q111 0 187 -49.5t106 -145.5q134 97 240 146t205 49q148 0 226 -73t78 -208z" />
    <glyph glyph-name="n" unicode="n" horiz-adv-x="1459" 
d="M1355 869q0 -30 -4 -65t-13 -73l-168 -731h-364l128 557q14 62 22 106t8 82q0 65 -33 95t-121 30q-43 0 -99 -18.5t-126 -55.5l-183 -796h-362l259 1123h362l-29 -124q111 73 202.5 114t201.5 41q151 0 235 -73t84 -212z" />
    <glyph glyph-name="o" unicode="o" horiz-adv-x="1404" 
d="M1335 712q0 -158 -53 -296t-149 -237q-100 -103 -232 -158.5t-308 -55.5q-251 0 -385 120t-134 332q0 150 50 285t148 238q95 101 233.5 159.5t310.5 58.5q252 0 385.5 -118.5t133.5 -327.5zM867 344q46 70 69.5 153t23.5 202q0 103 -45 158.5t-143 55.5
q-76 0 -133.5 -37t-101.5 -105q-41 -63 -64.5 -156t-23.5 -191q0 -115 51 -164.5t140 -49.5q65 0 125 35.5t102 98.5z" />
    <glyph glyph-name="p" unicode="p" horiz-adv-x="1432" 
d="M1366 764q0 -155 -50.5 -300.5t-137.5 -250.5q-91 -111 -205.5 -173t-256.5 -62q-90 0 -165.5 20.5t-136.5 57.5l-108 -468h-362l355 1535h362l-27 -117q102 70 188.5 109t191.5 39q170 0 261 -103.5t91 -286.5zM897 370q43 63 66 147.5t23 183.5q0 91 -40 139.5
t-143 48.5q-53 0 -104 -18.5t-108 -48.5l-130 -565q32 -14 74.5 -21.5t87.5 -7.5q91 0 161 39t113 103z" />
    <glyph glyph-name="q" unicode="q" horiz-adv-x="1432" 
d="M971 861q-29 14 -76 25.5t-83 11.5q-96 0 -162.5 -41t-109.5 -103q-44 -61 -68.5 -146t-24.5 -177q0 -93 41 -144t149 -51q49 0 103.5 22t103.5 52zM1394 1123l-355 -1535h-362l121 522q-43 -27 -92.5 -57.5t-85.5 -45.5q-51 -22 -96 -30t-97 -8q-163 0 -260.5 106
t-97.5 301q0 168 55 311t146 248q91 104 210 161.5t241 57.5q91 0 162.5 -21.5t134.5 -59.5l25 50h351z" />
    <glyph glyph-name="r" unicode="r" horiz-adv-x="1018" 
d="M1036 780h-32q-24 8 -68 12t-87 4q-71 0 -137 -10.5t-136 -33.5l-174 -752h-362l260 1123h362l-38 -165q102 75 203.5 122t204.5 47q19 0 42.5 -1t41.5 -3z" />
    <glyph glyph-name="s" unicode="s" horiz-adv-x="1215" 
d="M473 -31q-144 0 -279 27t-207 63l69 296h33q22 -19 55.5 -42t95.5 -48q53 -23 123 -39.5t151 -16.5q121 0 181.5 28t60.5 80q0 40 -43 61t-178 52q-229 53 -313.5 128t-84.5 187q0 190 170 299.5t460 109.5q126 0 252 -25.5t185 -54.5l-66 -284h-31q-71 55 -171.5 89.5
t-206.5 34.5q-115 0 -176.5 -27.5t-61.5 -84.5q0 -44 53 -67.5t167 -48.5q212 -46 305.5 -116t93.5 -196q0 -188 -172 -296.5t-465 -108.5z" />
    <glyph glyph-name="t" unicode="t" horiz-adv-x="933" 
d="M471 -22q-187 0 -267 61.5t-80 182.5q0 32 5 62t13 70l122 532h-148l55 237h148l74 321h361l-74 -321h338l-55 -237h-338l-93 -405q-10 -42 -19 -84.5t-9 -72.5q0 -60 33.5 -83.5t103.5 -23.5q28 0 73.5 10.5t72.5 23.5h30l-56 -241q-61 -15 -128.5 -23.5t-161.5 -8.5z
" />
    <glyph glyph-name="u" unicode="u" horiz-adv-x="1459" 
d="M1420 1123l-260 -1123h-362l29 124q-54 -35 -105.5 -65.5t-97.5 -48.5q-58 -24 -106 -32.5t-95 -8.5q-148 0 -233.5 71t-85.5 210q0 38 4 70.5t13 71.5l169 731h364l-129 -557q-15 -64 -22.5 -110t-7.5 -78q0 -66 32 -95.5t121 -29.5q44 0 101.5 19t124.5 55l184 796h362
z" />
    <glyph glyph-name="v" unicode="v" horiz-adv-x="1329" 
d="M1419 1123l-693 -1123h-410l-170 1123h371l82 -773l433 773h387z" />
    <glyph glyph-name="w" unicode="w" horiz-adv-x="2006" 
d="M2091 1123l-587 -1123h-382l-75 757l-379 -757h-387l-106 1123h368l33 -774l399 774h319l69 -774l348 774h380z" />
    <glyph glyph-name="x" unicode="x" horiz-adv-x="1370" 
d="M479 571l-316 552h388l179 -342l323 342h416l-575 -563l320 -560h-388l-181 346l-334 -346h-415z" />
    <glyph glyph-name="y" unicode="y" horiz-adv-x="1333" 
d="M454 -412h-395l286 434l-185 1101h368l97 -736l428 736h380z" />
    <glyph glyph-name="z" unicode="z" horiz-adv-x="1222" 
d="M1005 0h-1055l52 221l738 649h-565l59 253h1020l-51 -217l-729 -648h591z" />
    <glyph glyph-name="braceleft" unicode="{" horiz-adv-x="1456" 
d="M1052 -392h-266q-163 0 -259 71t-96 208q0 67 28.5 184t28.5 186q0 102 -66 152t-222 50h-70l52 246h70q184 0 275 73.5t127 243.5l31 147q41 198 170.5 292.5t336.5 94.5h274l-48 -224h-114q-70 0 -117 -9.5t-87 -37.5q-39 -27 -64 -73t-42 -126l-25 -119
q-34 -157 -124.5 -244.5t-258.5 -138.5l-6 -24q100 -41 160 -110t60 -178q0 -50 -21.5 -150t-21.5 -136q0 -83 45.5 -118.5t172.5 -35.5h125z" />
    <glyph glyph-name="bar" unicode="|" horiz-adv-x="1113" 
d="M725 -392h-291v1948h291v-1948z" />
    <glyph glyph-name="braceright" unicode="}" horiz-adv-x="1456" 
d="M1334 705l-52 -246h-70q-184 0 -275 -73.5t-127 -243.5l-31 -147q-42 -198 -171 -292.5t-336 -94.5h-274l48 224h114q70 0 117 9.5t87 37.5q39 27 64 73t42 126l25 119q33 156 124 244t259 139l6 24q-100 41 -160 110t-60 178q0 50 21.5 150t21.5 136q0 83 -45.5 118.5
t-172.5 35.5h-125l48 224h266q163 0 259 -71t96 -208q0 -67 -28.5 -184t-28.5 -186q0 -102 66 -152t222 -50h70z" />
    <glyph glyph-name="asciitilde" unicode="~" horiz-adv-x="1776" 
d="M1641 1007q-1 -328 -109.5 -504t-323.5 -176q-71 0 -124.5 16.5t-96.5 44.5q-42 29 -75.5 63.5t-69.5 76.5q-24 29 -56.5 70.5t-55.5 65.5q-29 31 -55.5 48.5t-59.5 17.5q-60 0 -91 -31t-48 -80q-18 -54 -23.5 -135t-7.5 -159h-270q0 338 112 509t321 171q68 0 123 -17.5
t100 -45.5q42 -28 76.5 -63t68.5 -75q24 -29 52.5 -66.5t59.5 -70.5q33 -34 59.5 -49.5t53.5 -15.5q57 0 90 29t49 82q17 53 23 128t8 166h270z" />
    <glyph glyph-name="exclamdown" unicode="&#xa1;" horiz-adv-x="824" 
d="M767 1225h-404l61 264h404zM491 0h-418l291 1060h326z" />
    <glyph glyph-name="cent" unicode="&#xa2;" horiz-adv-x="1456" 
d="M1156 67q-57 -21 -145 -46.5t-181 -33.5l-80 -348h-174l79 345q-233 16 -360 131t-127 308q0 160 58 293t161 230q100 93 239.5 148.5t300.5 65.5l73 315h174l-74 -319q107 -12 182.5 -39.5t105.5 -42.5l-68 -295h-49q-33 34 -84.5 72.5t-147.5 57.5l-156 -676
q102 15 179 57.5t113 71.5h49zM718 236l155 672q-75 -18 -137 -60t-108 -103q-42 -56 -66.5 -129t-24.5 -142q0 -100 45.5 -159t135.5 -79z" />
    <glyph glyph-name="sterling" unicode="&#xa3;" horiz-adv-x="1456" 
d="M1204 0h-1171l60 281q133 34 190.5 108.5t86.5 213.5h-176l46 217h176l53 251q43 208 203.5 327.5t428.5 119.5q137 0 222.5 -16.5t135.5 -31.5l-67 -312h-45q-59 43 -122 64.5t-127 21.5q-118 0 -186.5 -58t-94.5 -178l-40 -188h437l-46 -217h-437q-20 -90 -83.5 -177.5
t-151.5 -129.5l-2 -11h771z" />
    <glyph glyph-name="currency" unicode="&#xa4;" horiz-adv-x="1456" 
d="M1310 273l-160 -161l-208 207q-42 -24 -86.5 -36t-100.5 -12q-53 0 -98 11.5t-89 36.5l-209 -209l-163 163l210 208q-23 42 -34 84.5t-11 98.5q0 55 11.5 100.5t38.5 91.5l-208 210l156 157l209 -209q41 23 87.5 34t100.5 11q56 0 99 -11.5t83 -32.5l210 208l162 -162
l-209 -208q28 -49 38.5 -93.5t10.5 -93.5q0 -55 -12 -101t-35 -85zM920 667q0 71 -49 120t-119 49t-119.5 -49t-49.5 -120q0 -69 49.5 -118.5t119.5 -49.5t119 49.5t49 118.5z" />
    <glyph glyph-name="yen" unicode="&#xa5;" horiz-adv-x="1456" 
d="M1607 1489l-682 -814l-12 -50h315l-50 -217h-313l-18 -78h312l-50 -217h-312l-26 -113h-368l26 113h-314l50 217h314l18 78h-313l50 217h315l12 50l-306 814h390l160 -470l370 470h432z" />
    <glyph glyph-name="yen" unicode="&#xffe5;" horiz-adv-x="1456" 
d="M1607 1489l-682 -814l-12 -50h315l-50 -217h-313l-18 -78h312l-50 -217h-312l-26 -113h-368l26 113h-314l50 217h314l18 78h-313l50 217h315l12 50l-306 814h390l160 -470l370 470h432z" />
    <glyph glyph-name="brokenbar" unicode="&#xa6;" horiz-adv-x="1113" 
d="M747 758h-291v798h291v-798zM747 -392h-291v798h291v-798z" />
    <glyph glyph-name="section" unicode="&#xa7;" horiz-adv-x="1456" 
d="M1034 256l-1 -7q53 -34 93.5 -89.5t40.5 -135.5q0 -86 -43.5 -163.5t-124.5 -131.5q-87 -59 -207.5 -90t-275.5 -31q-109 0 -249 21t-220 52l57 288l34 -2q64 -44 160 -74.5t206 -30.5q111 0 178.5 31.5t67.5 89.5q0 23 -8 41t-38 39q-24 18 -90.5 48t-145.5 63
q-182 75 -257 147t-75 190q0 68 25 122t61 96q40 46 91.5 81t106.5 62l1 7q-72 49 -104 106t-32 123q0 181 178 296t464 115q132 0 261 -21.5t205 -49.5l-57 -288l-32 1q-61 41 -151.5 72.5t-199.5 31.5q-125 0 -188.5 -32t-63.5 -88q0 -31 9.5 -48t44.5 -40q30 -19 85 -43
t145 -59q166 -65 249.5 -140t83.5 -192q0 -116 -76 -210.5t-208 -156.5zM949 559q0 44 -35 75.5t-101 60.5q-25 11 -64.5 26.5t-94.5 35.5q-64 -33 -106.5 -83.5t-42.5 -99.5q0 -48 34 -79.5t102 -61.5q28 -12 64.5 -27.5t95.5 -36.5q69 43 108.5 86.5t39.5 103.5z" />
    <glyph glyph-name="dieresis" unicode="&#xa8;" horiz-adv-x="1456" 
d="M1316 1556l-63 -273h-297l63 273h297zM779 1556l-63 -273h-297l63 273h297z" />
    <glyph glyph-name="copyright" unicode="&#xa9;" horiz-adv-x="1974" 
d="M1895 655q0 -358 -253.5 -611.5t-611.5 -253.5t-611.5 253.5t-253.5 611.5t253.5 611.5t611.5 253.5t611.5 -253.5t253.5 -611.5zM1704 655q0 279 -197.5 479t-476.5 200t-476.5 -200t-197.5 -479t197.5 -479t476.5 -200t476.5 200t197.5 479zM1364 277q-78 -36 -150 -54
t-138 -18q-222 0 -349 124.5t-127 330.5q0 207 133.5 332.5t342.5 125.5q80 0 154 -21t134 -50v-206h-21q-74 54 -137 77.5t-126 23.5q-113 0 -171.5 -71t-58.5 -211q0 -135 60.5 -207t169.5 -72q81 0 150.5 32.5t112.5 68.5h21v-205z" />
    <glyph glyph-name="ordfeminine" unicode="&#xaa;" horiz-adv-x="1224" 
d="M1033 596h-280l21 96q-27 -18 -64 -43t-69 -39q-44 -19 -82.5 -28.5t-105.5 -9.5q-109 0 -178 63t-69 164q0 114 52 184.5t143 113.5q88 41 210.5 59.5t275.5 27.5q1 5 3.5 16.5t2.5 23.5q0 57 -51.5 80t-153.5 23q-69 0 -150.5 -23.5t-128.5 -40.5h-26l41 213
q55 14 149 29t208 15q195 0 297 -52.5t102 -173.5q0 -16 -2.5 -40.5t-7.5 -45.5zM848 1020q-88 -8 -143 -14.5t-108 -25.5q-45 -17 -71.5 -50t-26.5 -85q0 -43 29.5 -63.5t100.5 -20.5q42 0 90 20.5t87 49.5z" />
    <glyph glyph-name="guillemotleft" unicode="&#xab;" horiz-adv-x="1740" 
d="M1346 128l-495 463l31 135l708 462l-75 -327l-353 -223l251 -223zM719 128l-495 463l31 135l708 462l-75 -327l-353 -223l251 -223z" />
    <glyph glyph-name="logicalnot" unicode="&#xac;" horiz-adv-x="1776" 
d="M1560 29h-285v528h-1044v269h1329v-797z" />
    <glyph glyph-name="registered" unicode="&#xae;" horiz-adv-x="1974" 
d="M1895 655q0 -358 -253.5 -611.5t-611.5 -253.5t-611.5 253.5t-253.5 611.5t253.5 611.5t611.5 253.5t611.5 -253.5t253.5 -611.5zM1704 655q0 279 -197.5 479t-476.5 200t-476.5 -200t-197.5 -479t197.5 -479t476.5 -200t476.5 200t197.5 479zM1516 245h-271l-261 316
h-86v-316h-212v861h327q91 0 146 -7t109 -36q59 -33 86.5 -80t27.5 -117q0 -94 -53 -155t-138 -95zM1146 850q0 27 -11.5 49.5t-38.5 36.5q-25 14 -57.5 17.5t-73.5 3.5h-67v-243h51q53 0 91 7.5t61 25.5q23 17 34 42t11 61z" />
    <glyph glyph-name="macron" unicode="&#xaf;" horiz-adv-x="1456" 
d="M1766 1839l-48 -211h-1488l48 211h1488z" />
    <glyph glyph-name="degree" unicode="&#xb0;" horiz-adv-x="1203" 
d="M1132 1102q0 -176 -122.5 -297t-299.5 -121t-299.5 121t-122.5 297t122.5 297t299.5 121q178 0 300 -121t122 -297zM904 1102q0 82 -55.5 140.5t-138.5 58.5q-82 0 -138 -58t-56 -141q0 -85 56.5 -141.5t137.5 -56.5q83 0 138.5 58t55.5 140z" />
    <glyph glyph-name="plusminus" unicode="&#xb1;" horiz-adv-x="1776" 
d="M1578 0h-1340v268h534v416h-534v268h533v529h274v-529h533v-268h-534v-416h534v-268z" />
    <glyph glyph-name="uni00B2" unicode="&#xb2;" horiz-adv-x="1224" 
d="M1102 1271q0 -75 -26 -136.5t-80 -113.5q-55 -54 -147 -116.5t-206 -132.5h412l-48 -206h-807l44 189q92 49 198 113t157 101q96 68 139.5 117.5t43.5 109.5q0 53 -37 81.5t-109 28.5q-57 0 -114 -20.5t-143 -64.5h-23l54 237q84 27 163 44t166 17q179 0 271 -65t92 -183
z" />
    <glyph glyph-name="uni00B3" unicode="&#xb3;" horiz-adv-x="1224" 
d="M1120 1295q0 -93 -60.5 -153.5t-160.5 -90.5l-2 -8q73 -20 116 -62t43 -122q0 -147 -128.5 -232t-325.5 -85q-127 0 -228.5 17.5t-155.5 40.5l42 216h22q38 -23 120.5 -46t161.5 -23q96 0 147.5 27.5t51.5 83.5q0 40 -31 61t-111 21h-153l38 195h137q89 0 129 29t40 74
q0 41 -39 60.5t-128 19.5q-60 0 -134.5 -23.5t-128.5 -49.5h-23l41 213q74 24 155.5 42t179.5 18q202 0 293.5 -58.5t91.5 -164.5z" />
    <glyph glyph-name="acute" unicode="&#xb4;" horiz-adv-x="1456" 
d="M1308 1656l-438 -373h-256l313 393h381v-20z" />
    <glyph glyph-name="mu" unicode="&#xb5;" horiz-adv-x="1477" 
d="M1177 0h-318v80h-7q-61 -44 -113 -69.5t-122 -25.5q-64 0 -112.5 22t-87.5 65l-112 -484h-362l355 1535h362l-185 -799q40 -38 89 -52t103 -14q50 0 110.5 15.5t112.5 50.5l185 799h362z" />
    <glyph glyph-name="paragraph" unicode="&#xb6;" horiz-adv-x="1456" 
d="M1038 -363h-202l386 1672h-151l-386 -1672h-212l220 956q-226 13 -343.5 115.5t-117.5 266.5q0 239 180.5 376.5t510.5 137.5h542z" />
    <glyph glyph-name="periodcentered" unicode="&#xb7;" horiz-adv-x="740" 
d="M535 464h-374l90 393h374z" />
    <glyph glyph-name="cedilla" unicode="&#xb8;" horiz-adv-x="1456" 
d="M890 20q-17 -235 -132 -339t-329 -104q-38 0 -106.5 7t-101.5 17l46 200h23q25 -12 63 -23.5t87 -11.5q39 0 79.5 10.5t65.5 36.5q30 30 48.5 75.5t23.5 131.5h233z" />
    <glyph glyph-name="uni00B9" unicode="&#xb9;" horiz-adv-x="1224" 
d="M1000 754l-43 -188h-698l43 188h217l99 426h-226l41 178q114 0 191 30.5t102 104.5h238l-171 -739h207z" />
    <glyph glyph-name="ordmasculine" unicode="&#xba;" horiz-adv-x="1224" 
d="M611 565q-201 0 -302.5 98t-101.5 264q0 128 41.5 234t112.5 185q73 80 181.5 127t242.5 47q197 0 301 -95t104 -262q0 -125 -41.5 -237t-115.5 -190q-77 -81 -182.5 -126t-239.5 -45zM898 1153q0 94 -40 132.5t-107 38.5q-113 0 -182.5 -113.5t-69.5 -277.5
q0 -93 40 -132.5t109 -39.5q104 0 177 108t73 284z" />
    <glyph glyph-name="guillemotright" unicode="&#xbb;" horiz-adv-x="1740" 
d="M1529 590l-708 -462l75 327l353 223l-251 223l67 287l495 -463zM902 590l-708 -462l75 327l353 223l-251 223l67 287l495 -463z" />
    <glyph glyph-name="onequarter" unicode="&#xbc;" horiz-adv-x="2420" 
d="M924 1493l-216 -934h-277l140 607h-234l42 182q112 0 195.5 35.5t107.5 109.5h242zM1905 1498l-1131 -1498h-271l1131 1498h271zM2219 383l-43 -186h-167l-45 -197h-262l45 197h-474l61 261l571 486h277l-130 -561h167zM1872 721l-404 -338h326z" />
    <glyph glyph-name="onehalf" unicode="&#xbd;" horiz-adv-x="2420" 
d="M904 1493l-216 -934h-277l140 607h-234l42 182q112 0 195.5 35.5t107.5 109.5h242zM1870 1498l-1131 -1498h-271l1131 1498h271zM2249 704q0 -75 -26 -136.5t-80 -113.5q-55 -54 -147 -116.5t-206 -132.5h412l-48 -206h-807l44 189q92 49 198 113t157 101
q96 68 139.5 117.5t43.5 109.5q0 53 -37 81.5t-109 28.5q-57 0 -114 -20.5t-143 -64.5h-23l54 237q84 27 163 44t166 17q179 0 271 -65t92 -183z" />
    <glyph glyph-name="threequarters" unicode="&#xbe;" horiz-adv-x="2420" 
d="M1080 1295q0 -93 -60.5 -153.5t-160.5 -90.5l-2 -8q73 -20 116 -62t43 -122q0 -147 -128.5 -232t-325.5 -85q-127 0 -228.5 17.5t-155.5 40.5l42 216h22q38 -23 120.5 -46t161.5 -23q96 0 147.5 27.5t51.5 83.5q0 40 -31 61t-111 21h-153l38 195h137q89 0 129 29t40 74
q0 41 -39 60.5t-128 19.5q-60 0 -134.5 -23.5t-128.5 -49.5h-23l41 213q74 24 155.5 42t179.5 18q202 0 293.5 -58.5t91.5 -164.5zM2000 1498l-1131 -1498h-271l1131 1498h271zM2269 383l-43 -186h-167l-45 -197h-262l45 197h-474l61 261l571 486h277l-130 -561h167z
M1922 721l-404 -338h326z" />
    <glyph glyph-name="questiondown" unicode="&#xbf;" horiz-adv-x="1263" 
d="M56 328q0 173 131 311.5t411 241.5l49 208h352l-80 -346q-224 -57 -338.5 -144t-114.5 -197q0 -80 54.5 -118.5t155.5 -38.5q79 0 169.5 31t184.5 85h40l-71 -305q-81 -34 -198 -60t-253 -26q-235 0 -363.5 94t-128.5 264zM650 1225l61 264h404l-61 -264h-404z" />
    <glyph glyph-name="Agrave" unicode="&#xc0;" horiz-adv-x="1590" 
d="M1451 0h-387l-34 304h-548l-174 -304h-401l893 1489h444zM1001 571l-60 535l-307 -535h367zM1225 1656h-226l-286 373v20h341z" />
    <glyph glyph-name="Aacute" unicode="&#xc1;" horiz-adv-x="1590" 
d="M1451 0h-387l-34 304h-548l-174 -304h-401l893 1489h444zM1001 571l-60 535l-307 -535h367zM1428 2029l-438 -373h-256l313 393h381v-20z" />
    <glyph glyph-name="Acircumflex" unicode="&#xc2;" horiz-adv-x="1590" 
d="M1451 0h-387l-34 304h-548l-174 -304h-401l893 1489h444zM1001 571l-60 535l-307 -535h367zM1455 1646h-255l-134 219l-235 -219h-269l412 393h251z" />
    <glyph glyph-name="Atilde" unicode="&#xc3;" horiz-adv-x="1590" 
d="M1451 0h-387l-34 304h-548l-174 -304h-401l893 1489h444zM1001 571l-60 535l-307 -535h367zM1495 1991q-28 -156 -113.5 -243.5t-216.5 -87.5q-60 0 -107.5 21t-101.5 57q-27 19 -48.5 28t-44.5 9q-47 0 -71 -31t-42 -91h-219q27 155 113.5 243t216.5 88
q62 0 108.5 -20.5t100.5 -57.5q29 -20 47.5 -28.5t45.5 -8.5q49 0 73 32t40 90h219z" />
    <glyph glyph-name="Adieresis" unicode="&#xc4;" horiz-adv-x="1590" 
d="M1451 0h-387l-34 304h-548l-174 -304h-401l893 1489h444zM1001 571l-60 535l-307 -535h367zM1485 1929l-63 -273h-297l63 273h297zM948 1929l-63 -273h-297l63 273h297z" />
    <glyph glyph-name="Aring" unicode="&#xc5;" horiz-adv-x="1590" 
d="M1451 0h-387l-34 304h-548l-174 -304h-401l857 1429q-26 30 -41.5 75t-15.5 90q0 141 108.5 241t255.5 100q127 0 207.5 -72t80.5 -187q0 -74 -30 -137t-77 -107zM1174 1659q0 53 -30.5 87t-86.5 34q-73 0 -119 -55t-46 -119q0 -51 31 -86t88 -35q69 0 116 53t47 121z
M1001 571l-60 535l-307 -535h367z" />
    <glyph glyph-name="AE" unicode="&#xc6;" horiz-adv-x="2240" 
d="M1979 0h-1074l93 404h-469l-255 -404h-399l955 1489h1493l-65 -282h-695l-62 -266h645l-66 -283h-645l-87 -376h695zM1064 688l122 527h-144l-333 -527h355z" />
    <glyph glyph-name="Ccedilla" unicode="&#xc7;" horiz-adv-x="1482" 
d="M712 -28q-285 9 -439.5 157t-154.5 416q0 219 72.5 397t199.5 308q124 126 297.5 197t364.5 71q154 0 286 -31.5t238 -92.5l-88 -361h-44q-95 102 -189 150t-221 48q-223 0 -367.5 -179t-144.5 -456q0 -178 80 -258t234 -80q138 0 259 55.5t229 141.5h40l-87 -356
q-31 -12 -67 -28t-83 -33q-37 -13 -80.5 -27t-99.5 -23q-23 -214 -137 -312.5t-321 -98.5q-38 0 -106.5 7t-101.5 17l46 200h23q25 -12 63 -23.5t87 -11.5q33 0 73 9.5t63 29.5q28 23 48 64t28 103z" />
    <glyph glyph-name="Egrave" unicode="&#xc8;" horiz-adv-x="1399" 
d="M1482 1489l-65 -282h-695l-62 -266h645l-66 -283h-645l-87 -376h695l-64 -282h-1079l344 1489h1079zM1152 1656h-226l-286 373v20h341z" />
    <glyph glyph-name="Eacute" unicode="&#xc9;" horiz-adv-x="1399" 
d="M1482 1489l-65 -282h-695l-62 -266h645l-66 -283h-645l-87 -376h695l-64 -282h-1079l344 1489h1079zM1414 2029l-438 -373h-256l313 393h381v-20z" />
    <glyph glyph-name="Ecircumflex" unicode="&#xca;" horiz-adv-x="1399" 
d="M1482 1489l-65 -282h-695l-62 -266h645l-66 -283h-645l-87 -376h695l-64 -282h-1079l344 1489h1079zM1408 1656h-255l-134 219l-235 -219h-269l412 393h251z" />
    <glyph glyph-name="Edieresis" unicode="&#xcb;" horiz-adv-x="1399" 
d="M1482 1489l-65 -282h-695l-62 -266h645l-66 -283h-645l-87 -376h695l-64 -282h-1079l344 1489h1079zM1430 1929l-63 -273h-297l63 273h297zM893 1929l-63 -273h-297l63 273h297z" />
    <glyph glyph-name="Igrave" unicode="&#xcc;" horiz-adv-x="1118" 
d="M865 0h-872l61 264h243l222 961h-243l61 264h872l-61 -264h-243l-222 -961h243zM1015 1656h-226l-286 373v20h341z" />
    <glyph glyph-name="Iacute" unicode="&#xcd;" horiz-adv-x="1118" 
d="M865 0h-872l61 264h243l222 961h-243l61 264h872l-61 -264h-243l-222 -961h243zM1278 2029l-438 -373h-256l313 393h381v-20z" />
    <glyph glyph-name="Icircumflex" unicode="&#xce;" horiz-adv-x="1118" 
d="M865 0h-872l61 264h243l222 961h-243l61 264h872l-61 -264h-243l-222 -961h243zM1239 1656h-255l-134 219l-235 -219h-269l412 393h251z" />
    <glyph glyph-name="Idieresis" unicode="&#xcf;" horiz-adv-x="1118" 
d="M865 0h-872l61 264h243l222 961h-243l61 264h872l-61 -264h-243l-222 -961h243zM1284 1929l-63 -273h-297l63 273h297zM747 1929l-63 -273h-297l63 273h297z" />
    <glyph glyph-name="Eth" unicode="&#xd0;" horiz-adv-x="1700" 
d="M1663 908q0 -253 -133 -467t-341 -328q-126 -68 -263 -90.5t-328 -22.5h-539l157 679h-161l53 233h162l133 577h482q213 0 343 -33t210 -89q110 -76 167.5 -189.5t57.5 -269.5zM1261 873q0 102 -38 175.5t-116 118.5q-36 20 -73.5 30.5t-85.5 15.5q-46 4 -105 4h-103h-13
l-71 -305h317l-53 -233h-318l-95 -406h35h124t107 5q53 5 95.5 16t93.5 37q144 74 221.5 221t77.5 321z" />
    <glyph glyph-name="Ntilde" unicode="&#xd1;" horiz-adv-x="1734" 
d="M1415 0h-327l-437 1031l-238 -1031h-354l344 1489h430l374 -862l198 862h354zM1603 1991q-28 -156 -113.5 -243.5t-216.5 -87.5q-60 0 -107.5 21t-101.5 57q-27 19 -48.5 28t-44.5 9q-47 0 -71 -31t-42 -91h-219q27 155 113.5 243t216.5 88q62 0 108.5 -20.5t100.5 -57.5
q29 -20 47.5 -28.5t45.5 -8.5q49 0 73 32t40 90h219z" />
    <glyph glyph-name="Ograve" unicode="&#xd2;" horiz-adv-x="1741" 
d="M1707 935q0 -183 -62 -360t-180 -309q-129 -144 -301 -220.5t-396 -76.5q-305 0 -477.5 157.5t-172.5 433.5q0 194 66 369t189 308q120 129 297 206t386 77q306 0 478.5 -158t172.5 -427zM1158 427q68 89 106.5 206.5t38.5 270.5q0 160 -76.5 250.5t-218.5 90.5
q-93 0 -177.5 -42.5t-155.5 -129.5q-69 -83 -111 -206.5t-42 -277.5q0 -171 78.5 -258t217.5 -87q96 0 185 47.5t155 135.5zM1228 1656h-226l-286 373v20h341z" />
    <glyph glyph-name="Oacute" unicode="&#xd3;" horiz-adv-x="1741" 
d="M1707 935q0 -183 -62 -360t-180 -309q-129 -144 -301 -220.5t-396 -76.5q-305 0 -477.5 157.5t-172.5 433.5q0 194 66 369t189 308q120 129 297 206t386 77q306 0 478.5 -158t172.5 -427zM1158 427q68 89 106.5 206.5t38.5 270.5q0 160 -76.5 250.5t-218.5 90.5
q-93 0 -177.5 -42.5t-155.5 -129.5q-69 -83 -111 -206.5t-42 -277.5q0 -171 78.5 -258t217.5 -87q96 0 185 47.5t155 135.5zM1519 2029l-438 -373h-256l313 393h381v-20z" />
    <glyph glyph-name="Ocircumflex" unicode="&#xd4;" horiz-adv-x="1741" 
d="M1707 935q0 -183 -62 -360t-180 -309q-129 -144 -301 -220.5t-396 -76.5q-305 0 -477.5 157.5t-172.5 433.5q0 194 66 369t189 308q120 129 297 206t386 77q306 0 478.5 -158t172.5 -427zM1158 427q68 89 106.5 206.5t38.5 270.5q0 160 -76.5 250.5t-218.5 90.5
q-93 0 -177.5 -42.5t-155.5 -129.5q-69 -83 -111 -206.5t-42 -277.5q0 -171 78.5 -258t217.5 -87q96 0 185 47.5t155 135.5zM1501 1656h-255l-134 219l-235 -219h-269l412 393h251z" />
    <glyph glyph-name="Otilde" unicode="&#xd5;" horiz-adv-x="1741" 
d="M1707 935q0 -183 -62 -360t-180 -309q-129 -144 -301 -220.5t-396 -76.5q-305 0 -477.5 157.5t-172.5 433.5q0 194 66 369t189 308q120 129 297 206t386 77q306 0 478.5 -158t172.5 -427zM1158 427q68 89 106.5 206.5t38.5 270.5q0 160 -76.5 250.5t-218.5 90.5
q-93 0 -177.5 -42.5t-155.5 -129.5q-69 -83 -111 -206.5t-42 -277.5q0 -171 78.5 -258t217.5 -87q96 0 185 47.5t155 135.5zM1571 1991q-28 -156 -113.5 -243.5t-216.5 -87.5q-60 0 -107.5 21t-101.5 57q-27 19 -48.5 28t-44.5 9q-47 0 -71 -31t-42 -91h-219
q27 155 113.5 243t216.5 88q62 0 108.5 -20.5t100.5 -57.5q29 -20 47.5 -28.5t45.5 -8.5q49 0 73 32t40 90h219z" />
    <glyph glyph-name="Odieresis" unicode="&#xd6;" horiz-adv-x="1741" 
d="M1707 935q0 -183 -62 -360t-180 -309q-129 -144 -301 -220.5t-396 -76.5q-305 0 -477.5 157.5t-172.5 433.5q0 194 66 369t189 308q120 129 297 206t386 77q306 0 478.5 -158t172.5 -427zM1158 427q68 89 106.5 206.5t38.5 270.5q0 160 -76.5 250.5t-218.5 90.5
q-93 0 -177.5 -42.5t-155.5 -129.5q-69 -83 -111 -206.5t-42 -277.5q0 -171 78.5 -258t217.5 -87q96 0 185 47.5t155 135.5zM1541 1929l-63 -273h-297l63 273h297zM1004 1929l-63 -273h-297l63 273h297z" />
    <glyph glyph-name="multiply" unicode="&#xd7;" horiz-adv-x="1776" 
d="M1559 223l-187 -187l-439 441l-434 -436l-187 187l436 434l-441 439l187 187l439 -441l434 436l187 -187l-436 -434z" />
    <glyph glyph-name="Oslash" unicode="&#xd8;" horiz-adv-x="1741" 
d="M1293 1043l-688 -729q39 -39 93 -58.5t120 -19.5q97 0 188.5 49t157.5 136q69 91 108 209.5t39 273.5q0 40 -4 74t-14 65zM530 453l684 726q-41 38 -93 56t-113 18q-94 0 -180 -43.5t-158 -130.5q-69 -82 -112.5 -208t-43.5 -282q0 -42 4 -73.5t12 -62.5zM255 161
q-67 75 -102 176t-35 223q0 194 66 369t189 308q120 129 297 206t386 77q122 0 219.5 -25t171.5 -68l156 165h207l-245 -259q70 -75 106 -174.5t36 -223.5q0 -183 -62 -360t-180 -309q-122 -136 -293.5 -216.5t-403.5 -80.5q-121 0 -219 24.5t-178 72.5l-195 -208h-207z" />
    <glyph glyph-name="Ugrave" unicode="&#xd9;" horiz-adv-x="1663" 
d="M1710 1489l-216 -930q-73 -309 -247 -448.5t-504 -139.5q-294 0 -445 105.5t-151 319.5q0 44 7 89t15 82l214 922h388l-214 -923q-7 -28 -11.5 -61.5t-4.5 -55.5q0 -94 56.5 -142.5t187.5 -48.5q127 0 205.5 70t112.5 218l219 943h388zM1265 1656h-226l-286 373v20h341z
" />
    <glyph glyph-name="Uacute" unicode="&#xda;" horiz-adv-x="1663" 
d="M1710 1489l-216 -930q-73 -309 -247 -448.5t-504 -139.5q-294 0 -445 105.5t-151 319.5q0 44 7 89t15 82l214 922h388l-214 -923q-7 -28 -11.5 -61.5t-4.5 -55.5q0 -94 56.5 -142.5t187.5 -48.5q127 0 205.5 70t112.5 218l219 943h388zM1509 2029l-438 -373h-256l313 393
h381v-20z" />
    <glyph glyph-name="Ucircumflex" unicode="&#xdb;" horiz-adv-x="1663" 
d="M1710 1489l-216 -930q-73 -309 -247 -448.5t-504 -139.5q-294 0 -445 105.5t-151 319.5q0 44 7 89t15 82l214 922h388l-214 -923q-7 -28 -11.5 -61.5t-4.5 -55.5q0 -94 56.5 -142.5t187.5 -48.5q127 0 205.5 70t112.5 218l219 943h388zM1507 1656h-255l-134 219
l-235 -219h-269l412 393h251z" />
    <glyph glyph-name="Udieresis" unicode="&#xdc;" horiz-adv-x="1663" 
d="M1710 1489l-216 -930q-73 -309 -247 -448.5t-504 -139.5q-294 0 -445 105.5t-151 319.5q0 44 7 89t15 82l214 922h388l-214 -923q-7 -28 -11.5 -61.5t-4.5 -55.5q0 -94 56.5 -142.5t187.5 -48.5q127 0 205.5 70t112.5 218l219 943h388zM1546 1929l-63 -273h-297l63 273
h297zM1009 1929l-63 -273h-297l63 273h297z" />
    <glyph glyph-name="Yacute" unicode="&#xdd;" horiz-adv-x="1509" 
d="M1715 1489l-759 -913l-133 -576h-386l129 558l-342 931h411l191 -583l445 583h444zM1428 2029l-438 -373h-256l313 393h381v-20z" />
    <glyph glyph-name="Thorn" unicode="&#xde;" horiz-adv-x="1505" 
d="M1329 1175q78 -49 119 -127.5t41 -195.5q0 -133 -56.5 -243.5t-163.5 -188.5q-112 -80 -261.5 -122t-355.5 -38l-146 2l-60 -262h-386l344 1489h386l-52 -225h149q146 0 254.5 -20t187.5 -69zM1079 815q0 87 -63 129t-187 42h-155l-103 -446h138q175 0 272.5 71.5
t97.5 203.5z" />
    <glyph glyph-name="germandbls" unicode="&#xdf;" horiz-adv-x="1460" 
d="M1420 1237q0 -150 -101 -247.5t-277 -131.5l-2 -9q146 -25 236.5 -111.5t90.5 -224.5q0 -235 -185 -381t-495 -146q-31 0 -85.5 4.5t-84.5 9.5l63 272h40q20 -7 44.5 -12.5t55.5 -5.5q127 0 204 64.5t77 177.5q0 106 -74.5 153.5t-203.5 47.5l61 267q116 0 190.5 63.5
t74.5 162.5q0 64 -38 100t-107 36q-103 0 -165 -64t-88 -176l-252 -1086h-361l244 1056q59 258 227.5 384t435.5 126q231 0 353 -88t122 -241z" />
    <glyph glyph-name="agrave" unicode="&#xe0;" horiz-adv-x="1368" 
d="M843 530q-96 -8 -180 -19t-143 -32q-61 -22 -93 -62t-32 -106q0 -58 42.5 -81.5t123.5 -23.5q53 0 113.5 24.5t113.5 62.5zM748 119q-34 -22 -82 -53t-89 -49q-56 -23 -105 -35t-136 -12q-140 0 -228.5 78.5t-88.5 204.5q0 133 63 225.5t187 147.5q116 52 276.5 75
t347.5 34q1 6 4 19.5t3 30.5q0 71 -66 99.5t-197 28.5q-89 0 -196.5 -30t-161.5 -50h-33l53 266q63 16 195 36t263 20q264 0 387.5 -69t123.5 -214q0 -20 -3.5 -52t-9.5 -56l-176 -764h-358zM1005 1283h-226l-286 373v20h341z" />
    <glyph glyph-name="aacute" unicode="&#xe1;" horiz-adv-x="1368" 
d="M843 530q-96 -8 -180 -19t-143 -32q-61 -22 -93 -62t-32 -106q0 -58 42.5 -81.5t123.5 -23.5q53 0 113.5 24.5t113.5 62.5zM748 119q-34 -22 -82 -53t-89 -49q-56 -23 -105 -35t-136 -12q-140 0 -228.5 78.5t-88.5 204.5q0 133 63 225.5t187 147.5q116 52 276.5 75
t347.5 34q1 6 4 19.5t3 30.5q0 71 -66 99.5t-197 28.5q-89 0 -196.5 -30t-161.5 -50h-33l53 266q63 16 195 36t263 20q264 0 387.5 -69t123.5 -214q0 -20 -3.5 -52t-9.5 -56l-176 -764h-358zM1338 1656l-438 -373h-256l313 393h381v-20z" />
    <glyph glyph-name="acircumflex" unicode="&#xe2;" horiz-adv-x="1368" 
d="M843 530q-96 -8 -180 -19t-143 -32q-61 -22 -93 -62t-32 -106q0 -58 42.5 -81.5t123.5 -23.5q53 0 113.5 24.5t113.5 62.5zM748 119q-34 -22 -82 -53t-89 -49q-56 -23 -105 -35t-136 -12q-140 0 -228.5 78.5t-88.5 204.5q0 133 63 225.5t187 147.5q116 52 276.5 75
t347.5 34q1 6 4 19.5t3 30.5q0 71 -66 99.5t-197 28.5q-89 0 -196.5 -30t-161.5 -50h-33l53 266q63 16 195 36t263 20q264 0 387.5 -69t123.5 -214q0 -20 -3.5 -52t-9.5 -56l-176 -764h-358zM1253 1283h-255l-134 219l-235 -219h-269l412 393h251z" />
    <glyph glyph-name="atilde" unicode="&#xe3;" horiz-adv-x="1368" 
d="M843 530q-96 -8 -180 -19t-143 -32q-61 -22 -93 -62t-32 -106q0 -58 42.5 -81.5t123.5 -23.5q53 0 113.5 24.5t113.5 62.5zM748 119q-34 -22 -82 -53t-89 -49q-56 -23 -105 -35t-136 -12q-140 0 -228.5 78.5t-88.5 204.5q0 133 63 225.5t187 147.5q116 52 276.5 75
t347.5 34q1 6 4 19.5t3 30.5q0 71 -66 99.5t-197 28.5q-89 0 -196.5 -30t-161.5 -50h-33l53 266q63 16 195 36t263 20q264 0 387.5 -69t123.5 -214q0 -20 -3.5 -52t-9.5 -56l-176 -764h-358zM1322 1618q-28 -156 -113.5 -243.5t-216.5 -87.5q-60 0 -107.5 21t-101.5 57
q-27 19 -48.5 28t-44.5 9q-47 0 -71 -31t-42 -91h-219q27 155 113.5 243t216.5 88q62 0 108.5 -20.5t100.5 -57.5q29 -20 47.5 -28.5t45.5 -8.5q49 0 73 32t40 90h219z" />
    <glyph glyph-name="adieresis" unicode="&#xe4;" horiz-adv-x="1368" 
d="M843 530q-96 -8 -180 -19t-143 -32q-61 -22 -93 -62t-32 -106q0 -58 42.5 -81.5t123.5 -23.5q53 0 113.5 24.5t113.5 62.5zM748 119q-34 -22 -82 -53t-89 -49q-56 -23 -105 -35t-136 -12q-140 0 -228.5 78.5t-88.5 204.5q0 133 63 225.5t187 147.5q116 52 276.5 75
t347.5 34q1 6 4 19.5t3 30.5q0 71 -66 99.5t-197 28.5q-89 0 -196.5 -30t-161.5 -50h-33l53 266q63 16 195 36t263 20q264 0 387.5 -69t123.5 -214q0 -20 -3.5 -52t-9.5 -56l-176 -764h-358zM1301 1556l-63 -273h-297l63 273h297zM764 1556l-63 -273h-297l63 273h297z" />
    <glyph glyph-name="aring" unicode="&#xe5;" horiz-adv-x="1368" 
d="M843 530q-96 -8 -180 -19t-143 -32q-61 -22 -93 -62t-32 -106q0 -58 42.5 -81.5t123.5 -23.5q53 0 113.5 24.5t113.5 62.5zM748 119q-34 -22 -82 -53t-89 -49q-56 -23 -105 -35t-136 -12q-140 0 -228.5 78.5t-88.5 204.5q0 133 63 225.5t187 147.5q116 52 276.5 75
t347.5 34q1 6 4 19.5t3 30.5q0 71 -66 99.5t-197 28.5q-89 0 -196.5 -30t-161.5 -50h-33l53 266q56 15 160 31.5t217 22.5q-62 33 -99.5 91.5t-37.5 136.5q0 69 29.5 132t81.5 111q49 45 116.5 71.5t136.5 26.5q61 0 112 -17t91 -51q40 -35 62.5 -82t22.5 -109
q0 -113 -68.5 -199.5t-162.5 -121.5q148 -21 228 -86.5t80 -183.5q0 -20 -3.5 -52t-9.5 -56l-176 -764h-358zM1006 1446q0 53 -30.5 87t-86.5 34q-73 0 -119 -55t-46 -119q0 -51 31 -86t88 -35q69 0 116 53t47 121z" />
    <glyph glyph-name="ae" unicode="&#xe6;" horiz-adv-x="2085" 
d="M2030 757q0 -68 -13.5 -133t-35.5 -129h-814v-11.5v-11.5q0 -128 86.5 -188.5t236.5 -60.5q110 0 214.5 40t182.5 89h40l-67 -289q-102 -44 -214 -68.5t-244 -24.5q-162 0 -282.5 44t-195.5 125q-135 -83 -264.5 -126t-293.5 -43q-155 0 -251 73t-96 210t63 226.5
t182 143.5q112 52 267.5 76t351.5 36q1 6 4 19.5t3 30.5q0 71 -62 99.5t-191 28.5q-89 0 -196.5 -30t-161.5 -50h-33l53 266q63 16 195 36t263 20q149 0 243.5 -19t161.5 -66q77 42 172 65t200 23q246 0 371 -101.5t125 -299.5zM1673 770q0 79 -47.5 121t-132.5 42
q-107 0 -179 -59.5t-112 -167.5h465q3 18 4.5 33t1.5 31zM831 306q-9 32 -13.5 68t-4.5 71q0 24 1 42t3 41q-222 -17 -322 -60.5t-100 -136.5q0 -66 44.5 -93t121.5 -27q58 0 127.5 24t142.5 71z" />
    <glyph glyph-name="ccedilla" unicode="&#xe7;" horiz-adv-x="1205" 
d="M592 -30q-106 3 -199.5 32t-163.5 85q-73 59 -114 148t-41 206q0 151 57.5 280.5t161.5 226.5q102 95 249 150.5t318 55.5q103 0 204.5 -23t188.5 -67l-76 -307h-51q-59 71 -133.5 105.5t-167.5 34.5q-170 0 -273 -120.5t-103 -300.5q0 -125 63.5 -187t197.5 -62
q104 0 189.5 42.5t146.5 94.5h51l-76 -307q-36 -16 -91 -36t-102 -30q-23 -217 -136.5 -315.5t-322.5 -98.5q-38 0 -106.5 7t-101.5 17l46 200h23q25 -12 63 -23.5t87 -11.5q33 0 73 9t63 29q28 23 48 64t28 102z" />
    <glyph glyph-name="egrave" unicode="&#xe8;" horiz-adv-x="1360" 
d="M949 706q3 18 4.5 33t1.5 31q0 79 -49 121t-141 42q-111 0 -186.5 -60t-114.5 -167h485zM674 -30q-287 0 -443 127t-156 351q0 153 51 281t147 225q92 94 230 149t303 55q251 0 378.5 -101.5t127.5 -299.5q0 -68 -13.5 -133t-35.5 -129h-834v-11.5v-11.5q0 -117 82 -183
t251 -66q118 0 223.5 40t183.5 89h40l-67 -289q-105 -46 -221 -69.5t-247 -23.5zM1015 1283h-226l-286 373v20h341z" />
    <glyph glyph-name="eacute" unicode="&#xe9;" horiz-adv-x="1360" 
d="M949 706q3 18 4.5 33t1.5 31q0 79 -49 121t-141 42q-111 0 -186.5 -60t-114.5 -167h485zM674 -30q-287 0 -443 127t-156 351q0 153 51 281t147 225q92 94 230 149t303 55q251 0 378.5 -101.5t127.5 -299.5q0 -68 -13.5 -133t-35.5 -129h-834v-11.5v-11.5q0 -117 82 -183
t251 -66q118 0 223.5 40t183.5 89h40l-67 -289q-105 -46 -221 -69.5t-247 -23.5zM1268 1656l-438 -373h-256l313 393h381v-20z" />
    <glyph glyph-name="ecircumflex" unicode="&#xea;" horiz-adv-x="1360" 
d="M949 706q3 18 4.5 33t1.5 31q0 79 -49 121t-141 42q-111 0 -186.5 -60t-114.5 -167h485zM674 -30q-287 0 -443 127t-156 351q0 153 51 281t147 225q92 94 230 149t303 55q251 0 378.5 -101.5t127.5 -299.5q0 -68 -13.5 -133t-35.5 -129h-834v-11.5v-11.5q0 -117 82 -183
t251 -66q118 0 223.5 40t183.5 89h40l-67 -289q-105 -46 -221 -69.5t-247 -23.5zM1260 1283h-255l-134 219l-235 -219h-269l412 393h251z" />
    <glyph glyph-name="edieresis" unicode="&#xeb;" horiz-adv-x="1360" 
d="M949 706q3 18 4.5 33t1.5 31q0 79 -49 121t-141 42q-111 0 -186.5 -60t-114.5 -167h485zM674 -30q-287 0 -443 127t-156 351q0 153 51 281t147 225q92 94 230 149t303 55q251 0 378.5 -101.5t127.5 -299.5q0 -68 -13.5 -133t-35.5 -129h-834v-11.5v-11.5q0 -117 82 -183
t251 -66q118 0 223.5 40t183.5 89h40l-67 -289q-105 -46 -221 -69.5t-247 -23.5zM1280 1556l-63 -273h-297l63 273h297zM743 1556l-63 -273h-297l63 273h297z" />
    <glyph glyph-name="igrave" unicode="&#xec;" horiz-adv-x="700" 
d="M662 1123l-260 -1123h-362l260 1123h362zM695 1283h-226l-286 373v20h341z" />
    <glyph glyph-name="iacute" unicode="&#xed;" horiz-adv-x="700" 
d="M662 1123l-260 -1123h-362l260 1123h362zM937 1656l-438 -373h-256l313 393h381v-20z" />
    <glyph glyph-name="icircumflex" unicode="&#xee;" horiz-adv-x="700" 
d="M662 1123l-260 -1123h-362l260 1123h362zM880 1283h-229l-84 213l-165 -213h-245l316 393h255z" />
    <glyph glyph-name="idieresis" unicode="&#xef;" horiz-adv-x="700" 
d="M662 1123l-260 -1123h-362l260 1123h362zM945 1556l-63 -273h-277l63 273h277zM486 1556l-63 -273h-277l63 273h277z" />
    <glyph glyph-name="eth" unicode="&#xf0;" horiz-adv-x="1391" 
d="M1114 193q-104 -112 -236.5 -170t-285.5 -58q-241 0 -384 117.5t-143 328.5q0 272 186.5 446t463.5 174q81 0 144 -19t115 -48q-10 55 -46 125t-86 136l-336 -123l-65 167l272 99q-57 54 -119 96.5t-122 66.5l5 25h455q20 -15 43.5 -34t47.5 -41l255 93l65 -167l-185 -67
q92 -116 134.5 -244t42.5 -278q0 -198 -59.5 -356.5t-161.5 -268.5zM950 704q-43 40 -95.5 63t-113.5 23q-137 0 -217 -97.5t-80 -267.5q0 -102 46 -156.5t138 -54.5q136 0 219 135.5t103 354.5z" />
    <glyph glyph-name="ntilde" unicode="&#xf1;" horiz-adv-x="1459" 
d="M1355 869q0 -30 -4 -65t-13 -73l-168 -731h-364l128 557q14 62 22 106t8 82q0 65 -33 95t-121 30q-43 0 -99 -18.5t-126 -55.5l-183 -796h-362l259 1123h362l-29 -124q111 73 202.5 114t201.5 41q151 0 235 -73t84 -212zM1375 1618q-28 -156 -113.5 -243.5t-216.5 -87.5
q-60 0 -107.5 21t-101.5 57q-27 19 -48.5 28t-44.5 9q-47 0 -71 -31t-42 -91h-219q27 155 113.5 243t216.5 88q62 0 108.5 -20.5t100.5 -57.5q29 -20 47.5 -28.5t45.5 -8.5q49 0 73 32t40 90h219z" />
    <glyph glyph-name="ograve" unicode="&#xf2;" horiz-adv-x="1404" 
d="M1335 712q0 -158 -53 -296t-149 -237q-100 -103 -232 -158.5t-308 -55.5q-251 0 -385 120t-134 332q0 150 50 285t148 238q95 101 233.5 159.5t310.5 58.5q252 0 385.5 -118.5t133.5 -327.5zM867 344q46 70 69.5 153t23.5 202q0 103 -45 158.5t-143 55.5
q-76 0 -133.5 -37t-101.5 -105q-41 -63 -64.5 -156t-23.5 -191q0 -115 51 -164.5t140 -49.5q65 0 125 35.5t102 98.5zM1030 1283h-226l-286 373v20h341z" />
    <glyph glyph-name="oacute" unicode="&#xf3;" horiz-adv-x="1404" 
d="M1335 712q0 -158 -53 -296t-149 -237q-100 -103 -232 -158.5t-308 -55.5q-251 0 -385 120t-134 332q0 150 50 285t148 238q95 101 233.5 159.5t310.5 58.5q252 0 385.5 -118.5t133.5 -327.5zM867 344q46 70 69.5 153t23.5 202q0 103 -45 158.5t-143 55.5
q-76 0 -133.5 -37t-101.5 -105q-41 -63 -64.5 -156t-23.5 -191q0 -115 51 -164.5t140 -49.5q65 0 125 35.5t102 98.5zM1303 1656l-438 -373h-256l313 393h381v-20z" />
    <glyph glyph-name="ocircumflex" unicode="&#xf4;" horiz-adv-x="1404" 
d="M1335 712q0 -158 -53 -296t-149 -237q-100 -103 -232 -158.5t-308 -55.5q-251 0 -385 120t-134 332q0 150 50 285t148 238q95 101 233.5 159.5t310.5 58.5q252 0 385.5 -118.5t133.5 -327.5zM867 344q46 70 69.5 153t23.5 202q0 103 -45 158.5t-143 55.5
q-76 0 -133.5 -37t-101.5 -105q-41 -63 -64.5 -156t-23.5 -191q0 -115 51 -164.5t140 -49.5q65 0 125 35.5t102 98.5zM1263 1283h-255l-134 219l-235 -219h-269l412 393h251z" />
    <glyph glyph-name="otilde" unicode="&#xf5;" horiz-adv-x="1404" 
d="M1335 712q0 -158 -53 -296t-149 -237q-100 -103 -232 -158.5t-308 -55.5q-251 0 -385 120t-134 332q0 150 50 285t148 238q95 101 233.5 159.5t310.5 58.5q252 0 385.5 -118.5t133.5 -327.5zM867 344q46 70 69.5 153t23.5 202q0 103 -45 158.5t-143 55.5
q-76 0 -133.5 -37t-101.5 -105q-41 -63 -64.5 -156t-23.5 -191q0 -115 51 -164.5t140 -49.5q65 0 125 35.5t102 98.5zM1328 1618q-28 -156 -113.5 -243.5t-216.5 -87.5q-60 0 -107.5 21t-101.5 57q-27 19 -48.5 28t-44.5 9q-47 0 -71 -31t-42 -91h-219q27 155 113.5 243
t216.5 88q62 0 108.5 -20.5t100.5 -57.5q29 -20 47.5 -28.5t45.5 -8.5q49 0 73 32t40 90h219z" />
    <glyph glyph-name="odieresis" unicode="&#xf6;" horiz-adv-x="1404" 
d="M1335 712q0 -158 -53 -296t-149 -237q-100 -103 -232 -158.5t-308 -55.5q-251 0 -385 120t-134 332q0 150 50 285t148 238q95 101 233.5 159.5t310.5 58.5q252 0 385.5 -118.5t133.5 -327.5zM867 344q46 70 69.5 153t23.5 202q0 103 -45 158.5t-143 55.5
q-76 0 -133.5 -37t-101.5 -105q-41 -63 -64.5 -156t-23.5 -191q0 -115 51 -164.5t140 -49.5q65 0 125 35.5t102 98.5zM1305 1556l-63 -273h-297l63 273h297zM768 1556l-63 -273h-297l63 273h297z" />
    <glyph glyph-name="divide" unicode="&#xf7;" horiz-adv-x="1776" 
d="M1080 1001h-340v323h340v-323zM1580 528h-1340v268h1340v-268zM1080 0h-340v323h340v-323z" />
    <glyph glyph-name="oslash" unicode="&#xf8;" horiz-adv-x="1404" 
d="M1449 1253l-222 -237q53 -56 80.5 -132.5t27.5 -171.5q0 -158 -53 -296t-149 -237q-100 -103 -232 -158.5t-308 -55.5q-86 0 -162.5 15.5t-133.5 44.5l-175 -187h-180l247 263q-57 58 -86 138.5t-29 177.5q0 150 50 285t148 238q95 101 233.5 159.5t310.5 58.5
q88 0 165 -16t139 -47l149 158h180zM911 871q-26 26 -61.5 37t-77.5 11q-73 0 -133.5 -37.5t-106.5 -106.5q-42 -63 -66.5 -155t-24.5 -196q0 -16 1 -29t2 -22zM872 340q45 67 70.5 155.5t25.5 203.5q0 9 -0.5 19t-1.5 20l-462 -492q25 -21 59 -31.5t77 -10.5q67 0 127.5 35
t104.5 101z" />
    <glyph glyph-name="ugrave" unicode="&#xf9;" horiz-adv-x="1459" 
d="M1420 1123l-260 -1123h-362l29 124q-54 -35 -105.5 -65.5t-97.5 -48.5q-58 -24 -106 -32.5t-95 -8.5q-148 0 -233.5 71t-85.5 210q0 38 4 70.5t13 71.5l169 731h364l-129 -557q-15 -64 -22.5 -110t-7.5 -78q0 -66 32 -95.5t121 -29.5q44 0 101.5 19t124.5 55l184 796h362
zM1035 1283h-226l-286 373v20h341z" />
    <glyph glyph-name="uacute" unicode="&#xfa;" horiz-adv-x="1459" 
d="M1420 1123l-260 -1123h-362l29 124q-54 -35 -105.5 -65.5t-97.5 -48.5q-58 -24 -106 -32.5t-95 -8.5q-148 0 -233.5 71t-85.5 210q0 38 4 70.5t13 71.5l169 731h364l-129 -557q-15 -64 -22.5 -110t-7.5 -78q0 -66 32 -95.5t121 -29.5q44 0 101.5 19t124.5 55l184 796h362
zM1398 1656l-438 -373h-256l313 393h381v-20z" />
    <glyph glyph-name="ucircumflex" unicode="&#xfb;" horiz-adv-x="1459" 
d="M1420 1123l-260 -1123h-362l29 124q-54 -35 -105.5 -65.5t-97.5 -48.5q-58 -24 -106 -32.5t-95 -8.5q-148 0 -233.5 71t-85.5 210q0 38 4 70.5t13 71.5l169 731h364l-129 -557q-15 -64 -22.5 -110t-7.5 -78q0 -66 32 -95.5t121 -29.5q44 0 101.5 19t124.5 55l184 796h362
zM1322 1283h-255l-134 219l-235 -219h-269l412 393h251z" />
    <glyph glyph-name="udieresis" unicode="&#xfc;" horiz-adv-x="1459" 
d="M1420 1123l-260 -1123h-362l29 124q-54 -35 -105.5 -65.5t-97.5 -48.5q-58 -24 -106 -32.5t-95 -8.5q-148 0 -233.5 71t-85.5 210q0 38 4 70.5t13 71.5l169 731h364l-129 -557q-15 -64 -22.5 -110t-7.5 -78q0 -66 32 -95.5t121 -29.5q44 0 101.5 19t124.5 55l184 796h362
zM1364 1556l-63 -273h-297l63 273h297zM827 1556l-63 -273h-297l63 273h297z" />
    <glyph glyph-name="yacute" unicode="&#xfd;" horiz-adv-x="1333" 
d="M454 -412h-395l286 434l-185 1101h368l97 -736l428 736h380zM1298 1656l-438 -373h-256l313 393h381v-20z" />
    <glyph glyph-name="thorn" unicode="&#xfe;" horiz-adv-x="1432" 
d="M1366 764q0 -155 -50.5 -300.5t-137.5 -250.5q-91 -111 -205.5 -173t-256.5 -62q-90 0 -165.5 20.5t-136.5 57.5l-108 -468h-362l455 1968h362l-127 -550q102 70 188.5 109t191.5 39q170 0 261 -103.5t91 -286.5zM897 370q43 63 66 147.5t23 183.5q0 91 -40 139.5
t-143 48.5q-53 0 -104 -18.5t-108 -48.5l-130 -565q32 -14 74.5 -21.5t87.5 -7.5q91 0 161 39t113 103z" />
    <glyph glyph-name="ydieresis" unicode="&#xff;" horiz-adv-x="1333" 
d="M454 -412h-395l286 434l-185 1101h368l97 -736l428 736h380zM1281 1556l-63 -273h-297l63 273h297zM744 1556l-63 -273h-297l63 273h297z" />
    <glyph glyph-name="Amacron" unicode="&#x100;" horiz-adv-x="1590" 
d="M1451 0h-387l-34 304h-548l-174 -304h-401l893 1489h444zM1001 571l-60 535l-307 -535h367zM1417 1719h-802l48 210h802z" />
    <glyph glyph-name="amacron" unicode="&#x101;" horiz-adv-x="1368" 
d="M843 530q-96 -8 -180 -19t-143 -32q-61 -22 -93 -62t-32 -106q0 -58 42.5 -81.5t123.5 -23.5q53 0 113.5 24.5t113.5 62.5zM748 119q-34 -22 -82 -53t-89 -49q-56 -23 -105 -35t-136 -12q-140 0 -228.5 78.5t-88.5 204.5q0 133 63 225.5t187 147.5q116 52 276.5 75
t347.5 34q1 6 4 19.5t3 30.5q0 71 -66 99.5t-197 28.5q-89 0 -196.5 -30t-161.5 -50h-33l53 266q63 16 195 36t263 20q264 0 387.5 -69t123.5 -214q0 -20 -3.5 -52t-9.5 -56l-176 -764h-358zM1209 1346h-802l48 210h802z" />
    <glyph glyph-name="Abreve" unicode="&#x102;" horiz-adv-x="1590" 
d="M1451 0h-387l-34 304h-548l-174 -304h-401l893 1489h444zM1001 571l-60 535l-307 -535h367zM1480 2009q-49 -192 -170 -286.5t-304 -94.5q-146 0 -230 64.5t-84 193.5q0 31 3 57.5t12 65.5h217q-6 -24 -8.5 -44.5t-2.5 -35.5q0 -57 28 -90.5t100 -33.5q87 0 138 57.5
t72 146.5h229z" />
    <glyph glyph-name="abreve" unicode="&#x103;" horiz-adv-x="1368" 
d="M843 530q-96 -8 -180 -19t-143 -32q-61 -22 -93 -62t-32 -106q0 -58 42.5 -81.5t123.5 -23.5q53 0 113.5 24.5t113.5 62.5zM748 119q-34 -22 -82 -53t-89 -49q-56 -23 -105 -35t-136 -12q-140 0 -228.5 78.5t-88.5 204.5q0 133 63 225.5t187 147.5q116 52 276.5 75
t347.5 34q1 6 4 19.5t3 30.5q0 71 -66 99.5t-197 28.5q-89 0 -196.5 -30t-161.5 -50h-33l53 266q63 16 195 36t263 20q264 0 387.5 -69t123.5 -214q0 -20 -3.5 -52t-9.5 -56l-176 -764h-358zM1237 1636q-49 -192 -170 -286.5t-304 -94.5q-146 0 -230 64.5t-84 193.5
q0 31 3 57.5t12 65.5h217q-6 -24 -8.5 -44.5t-2.5 -35.5q0 -57 28 -90.5t100 -33.5q87 0 138 57.5t72 146.5h229z" />
    <glyph glyph-name="Aogonek" unicode="&#x104;" horiz-adv-x="1590" 
d="M1053 96l-23 208h-548l-174 -304h-401l893 1489h444l207 -1489h-245q-12 -29 -19 -61.5t-7 -61.5q0 -49 34.5 -76.5t112.5 -27.5q35 0 90 10.5t86 23.5h9l-46 -200q-51 -13 -96.5 -18.5t-90.5 -5.5q-151 0 -236.5 56.5t-85.5 163.5q0 74 25 143.5t71 149.5zM1001 571
l-60 535l-307 -535h367z" />
    <glyph glyph-name="aogonek" unicode="&#x105;" horiz-adv-x="1368" 
d="M843 530q-96 -8 -180 -19t-143 -32q-61 -22 -93 -62t-32 -106q0 -58 42.5 -81.5t123.5 -23.5q53 0 113.5 24.5t113.5 62.5zM750 119q-35 -22 -83.5 -53t-89.5 -49q-56 -23 -105 -35t-136 -12q-140 0 -228.5 78.5t-88.5 204.5q0 133 63 225.5t187 147.5q116 52 276.5 75
t347.5 34q1 6 4 19.5t3 30.5q0 71 -66 99.5t-197 28.5q-89 0 -196.5 -30t-161.5 -50h-33l53 266q63 16 195 36t263 20q264 0 387.5 -69t123.5 -214q0 -20 -3.5 -52t-9.5 -56l-176 -764h-153q-12 -29 -19 -61.5t-7 -61.5q0 -49 34.5 -76.5t112.5 -27.5q35 0 90 10.5t86 23.5
h9l-46 -200q-51 -13 -96.5 -18.5t-90.5 -5.5q-150 0 -236.5 56t-86.5 161q0 84 24 161t50 158z" />
    <glyph glyph-name="Cacute" unicode="&#x106;" horiz-adv-x="1482" 
d="M748 -29q-302 0 -466 148.5t-164 425.5q0 219 72.5 397t199.5 308q124 126 297.5 197t364.5 71q154 0 286 -31.5t238 -92.5l-88 -361h-44q-95 102 -189 150t-221 48q-223 0 -367.5 -179t-144.5 -456q0 -178 80 -258t234 -80q138 0 259 55.5t229 141.5h40l-87 -356
q-45 -18 -105 -43.5t-115 -41.5q-72 -21 -134.5 -32t-174.5 -11zM1498 2029l-438 -373h-256l313 393h381v-20z" />
    <glyph glyph-name="cacute" unicode="&#x107;" horiz-adv-x="1205" 
d="M620 -30q-115 0 -215.5 28.5t-175.5 88.5q-73 59 -114 148t-41 206q0 151 57.5 280.5t161.5 226.5q102 95 249 150.5t318 55.5q103 0 204.5 -23t188.5 -67l-76 -307h-51q-59 71 -133.5 105.5t-167.5 34.5q-170 0 -273 -120.5t-103 -300.5q0 -125 63.5 -187t197.5 -62
q104 0 189.5 42.5t146.5 94.5h51l-76 -307q-108 -47 -189.5 -67t-211.5 -20zM1283 1656l-438 -373h-256l313 393h381v-20z" />
    <glyph glyph-name="Ccircumflex" unicode="&#x108;" horiz-adv-x="1482" 
d="M748 -29q-302 0 -466 148.5t-164 425.5q0 219 72.5 397t199.5 308q124 126 297.5 197t364.5 71q154 0 286 -31.5t238 -92.5l-88 -361h-44q-95 102 -189 150t-221 48q-223 0 -367.5 -179t-144.5 -456q0 -178 80 -258t234 -80q138 0 259 55.5t229 141.5h40l-87 -356
q-45 -18 -105 -43.5t-115 -41.5q-72 -21 -134.5 -32t-174.5 -11zM1477 1656h-255l-134 219l-235 -219h-269l412 393h251z" />
    <glyph glyph-name="ccircumflex" unicode="&#x109;" horiz-adv-x="1205" 
d="M620 -30q-115 0 -215.5 28.5t-175.5 88.5q-73 59 -114 148t-41 206q0 151 57.5 280.5t161.5 226.5q102 95 249 150.5t318 55.5q103 0 204.5 -23t188.5 -67l-76 -307h-51q-59 71 -133.5 105.5t-167.5 34.5q-170 0 -273 -120.5t-103 -300.5q0 -125 63.5 -187t197.5 -62
q104 0 189.5 42.5t146.5 94.5h51l-76 -307q-108 -47 -189.5 -67t-211.5 -20zM1262 1283h-255l-134 219l-235 -219h-269l412 393h251z" />
    <glyph glyph-name="Cdotaccent" unicode="&#x10a;" horiz-adv-x="1482" 
d="M748 -29q-302 0 -466 148.5t-164 425.5q0 219 72.5 397t199.5 308q124 126 297.5 197t364.5 71q154 0 286 -31.5t238 -92.5l-88 -361h-44q-95 102 -189 150t-221 48q-223 0 -367.5 -179t-144.5 -456q0 -178 80 -258t234 -80q138 0 259 55.5t229 141.5h40l-87 -356
q-45 -18 -105 -43.5t-115 -41.5q-72 -21 -134.5 -32t-174.5 -11zM1229 1656h-370l63 273h370z" />
    <glyph glyph-name="cdotaccent" unicode="&#x10b;" horiz-adv-x="1205" 
d="M620 -30q-115 0 -215.5 28.5t-175.5 88.5q-73 59 -114 148t-41 206q0 151 57.5 280.5t161.5 226.5q102 95 249 150.5t318 55.5q103 0 204.5 -23t188.5 -67l-76 -307h-51q-59 71 -133.5 105.5t-167.5 34.5q-170 0 -273 -120.5t-103 -300.5q0 -125 63.5 -187t197.5 -62
q104 0 189.5 42.5t146.5 94.5h51l-76 -307q-108 -47 -189.5 -67t-211.5 -20zM1008 1283h-370l63 273h370z" />
    <glyph glyph-name="Ccaron" unicode="&#x10c;" horiz-adv-x="1482" 
d="M748 -29q-302 0 -466 148.5t-164 425.5q0 219 72.5 397t199.5 308q124 126 297.5 197t364.5 71q154 0 286 -31.5t238 -92.5l-88 -361h-44q-95 102 -189 150t-221 48q-223 0 -367.5 -179t-144.5 -456q0 -178 80 -258t234 -80q138 0 259 55.5t229 141.5h40l-87 -356
q-45 -18 -105 -43.5t-115 -41.5q-72 -21 -134.5 -32t-174.5 -11zM1565 2049l-412 -393h-251l-230 393h255l134 -219l235 219h269z" />
    <glyph glyph-name="ccaron" unicode="&#x10d;" horiz-adv-x="1205" 
d="M620 -30q-115 0 -215.5 28.5t-175.5 88.5q-73 59 -114 148t-41 206q0 151 57.5 280.5t161.5 226.5q102 95 249 150.5t318 55.5q103 0 204.5 -23t188.5 -67l-76 -307h-51q-59 71 -133.5 105.5t-167.5 34.5q-170 0 -273 -120.5t-103 -300.5q0 -125 63.5 -187t197.5 -62
q104 0 189.5 42.5t146.5 94.5h51l-76 -307q-108 -47 -189.5 -67t-211.5 -20zM1374 1676l-412 -393h-251l-230 393h255l134 -219l235 219h269z" />
    <glyph glyph-name="Dcaron" unicode="&#x10e;" horiz-adv-x="1700" 
d="M1663 908q0 -253 -133 -467t-341 -328q-126 -68 -263 -90.5t-328 -22.5h-539l344 1489h482q213 0 343 -33t210 -89q110 -76 167.5 -189.5t57.5 -269.5zM1261 873q0 102 -38 175.5t-116 118.5q-36 20 -73.5 30.5t-85.5 15.5q-46 4 -105 4h-103h-13l-220 -944h35h124t107 5
q53 5 95.5 16t93.5 37q144 74 221.5 221t77.5 321zM1489 2049l-412 -393h-251l-230 393h255l134 -219l235 219h269z" />
    <glyph glyph-name="dcaron" unicode="&#x10f;" horiz-adv-x="1802" 
d="M1494 1556l-360 -1556h-362l27 117q-52 -33 -91.5 -59.5t-87.5 -48.5q-45 -20 -88.5 -30t-104.5 -10q-163 0 -260.5 106t-97.5 301q0 160 51.5 300.5t141.5 248.5q88 105 208 167t251 62q92 0 160 -18.5t140 -57.5l111 478h362zM971 861q-29 14 -76 25.5t-83 11.5
q-86 0 -155 -38t-117 -104q-43 -59 -68 -150.5t-25 -176.5q0 -101 47 -147t143 -46q49 0 103.5 22t103.5 52zM2131 1556l-427 -589h-238l293 589h372z" />
    <glyph glyph-name="Dcroat" unicode="&#x110;" horiz-adv-x="1700" 
d="M1663 908q0 -253 -133 -467t-341 -328q-126 -68 -263 -90.5t-328 -22.5h-539l157 679h-161l53 233h162l133 577h482q213 0 343 -33t210 -89q110 -76 167.5 -189.5t57.5 -269.5zM1261 873q0 102 -38 175.5t-116 118.5q-36 20 -73.5 30.5t-85.5 15.5q-46 4 -105 4h-103h-13
l-71 -305h317l-53 -233h-318l-95 -406h35h124t107 5q53 5 95.5 16t93.5 37q144 74 221.5 221t77.5 321z" />
    <glyph glyph-name="dcroat" unicode="&#x111;" horiz-adv-x="1432" 
d="M1421 1240l-287 -1240h-362l27 117q-52 -33 -91.5 -59.5t-87.5 -48.5q-45 -20 -88.5 -30t-104.5 -10q-163 0 -260.5 106t-97.5 301q0 160 51.5 300.5t141.5 248.5q88 105 208 167t251 62q92 0 160 -18.5t140 -57.5l37 162h-327l46 201h328l27 115h362l-27 -115h125
l-46 -201h-125zM971 861q-29 14 -76 25.5t-83 11.5q-86 0 -155 -38t-117 -104q-43 -59 -68 -150.5t-25 -176.5q0 -101 47 -147t143 -46q49 0 103.5 22t103.5 52z" />
    <glyph glyph-name="Emacron" unicode="&#x112;" horiz-adv-x="1399" 
d="M1482 1489l-65 -282h-695l-62 -266h645l-66 -283h-645l-87 -376h695l-64 -282h-1079l344 1489h1079zM1357 1719h-802l48 210h802z" />
    <glyph glyph-name="emacron" unicode="&#x113;" horiz-adv-x="1360" 
d="M949 706q3 18 4.5 33t1.5 31q0 79 -49 121t-141 42q-111 0 -186.5 -60t-114.5 -167h485zM674 -30q-287 0 -443 127t-156 351q0 153 51 281t147 225q92 94 230 149t303 55q251 0 378.5 -101.5t127.5 -299.5q0 -68 -13.5 -133t-35.5 -129h-834v-11.5v-11.5q0 -117 82 -183
t251 -66q118 0 223.5 40t183.5 89h40l-67 -289q-105 -46 -221 -69.5t-247 -23.5zM1224 1346h-802l48 210h802z" />
    <glyph glyph-name="Ebreve" unicode="&#x114;" horiz-adv-x="1399" 
d="M1482 1489l-65 -282h-695l-62 -266h645l-66 -283h-645l-87 -376h695l-64 -282h-1079l344 1489h1079zM1394 2009q-49 -192 -170 -286.5t-304 -94.5q-146 0 -230 64.5t-84 193.5q0 31 3 57.5t12 65.5h217q-6 -24 -8.5 -44.5t-2.5 -35.5q0 -57 28 -90.5t100 -33.5
q87 0 138 57.5t72 146.5h229z" />
    <glyph glyph-name="ebreve" unicode="&#x115;" horiz-adv-x="1360" 
d="M949 706q3 18 4.5 33t1.5 31q0 79 -49 121t-141 42q-111 0 -186.5 -60t-114.5 -167h485zM674 -30q-287 0 -443 127t-156 351q0 153 51 281t147 225q92 94 230 149t303 55q251 0 378.5 -101.5t127.5 -299.5q0 -68 -13.5 -133t-35.5 -129h-834v-11.5v-11.5q0 -117 82 -183
t251 -66q118 0 223.5 40t183.5 89h40l-67 -289q-105 -46 -221 -69.5t-247 -23.5zM1274 1636q-49 -192 -170 -286.5t-304 -94.5q-146 0 -230 64.5t-84 193.5q0 31 3 57.5t12 65.5h217q-6 -24 -8.5 -44.5t-2.5 -35.5q0 -57 28 -90.5t100 -33.5q87 0 138 57.5t72 146.5h229z
" />
    <glyph glyph-name="Edotaccent" unicode="&#x116;" horiz-adv-x="1399" 
d="M1482 1489l-65 -282h-695l-62 -266h645l-66 -283h-645l-87 -376h695l-64 -282h-1079l344 1489h1079zM1161 1656h-370l63 273h370z" />
    <glyph glyph-name="edotaccent" unicode="&#x117;" horiz-adv-x="1360" 
d="M949 706q3 18 4.5 33t1.5 31q0 79 -49 121t-141 42q-111 0 -186.5 -60t-114.5 -167h485zM674 -30q-287 0 -443 127t-156 351q0 153 51 281t147 225q92 94 230 149t303 55q251 0 378.5 -101.5t127.5 -299.5q0 -68 -13.5 -133t-35.5 -129h-834v-11.5v-11.5q0 -117 82 -183
t251 -66q118 0 223.5 40t183.5 89h40l-67 -289q-105 -46 -221 -69.5t-247 -23.5zM991 1283h-370l63 273h370z" />
    <glyph glyph-name="Eogonek" unicode="&#x118;" horiz-adv-x="1399" 
d="M1482 1489l-65 -282h-695l-62 -266h645l-66 -283h-645l-87 -376h695l-64 -282h-267q-12 -29 -19 -61.5t-7 -61.5q0 -49 34.5 -76.5t112.5 -27.5q35 0 90 10.5t86 23.5h9l-46 -200q-51 -13 -96.5 -18.5t-90.5 -5.5q-150 0 -236 55t-86 160q0 68 10 108t34 94h-607
l344 1489h1079z" />
    <glyph glyph-name="eogonek" unicode="&#x119;" horiz-adv-x="1360" 
d="M949 706q3 18 4.5 33t1.5 31q0 79 -49 121t-141 42q-111 0 -186.5 -60t-114.5 -167h485zM562 -24q-234 24 -360.5 148t-126.5 324q0 153 51 281t147 225q92 94 230 149t303 55q251 0 378.5 -101.5t127.5 -299.5q0 -68 -13.5 -133t-35.5 -129h-834v-11.5v-11.5
q0 -117 82 -183t251 -66q118 0 223.5 40t183.5 89h40l-67 -289q-86 -37 -179.5 -60t-195.5 -29q-7 -20 -11.5 -45t-4.5 -52q0 -49 34.5 -76.5t112.5 -27.5q35 0 90 10.5t86 23.5h9l-46 -200q-51 -13 -96.5 -18.5t-90.5 -5.5q-150 0 -236 55t-86 160q0 53 7.5 91.5t26.5 86.5
z" />
    <glyph glyph-name="Ecaron" unicode="&#x11a;" horiz-adv-x="1399" 
d="M1482 1489l-65 -282h-695l-62 -266h645l-66 -283h-645l-87 -376h695l-64 -282h-1079l344 1489h1079zM1441 2049l-412 -393h-251l-230 393h255l134 -219l235 219h269z" />
    <glyph glyph-name="ecaron" unicode="&#x11b;" horiz-adv-x="1360" 
d="M949 706q3 18 4.5 33t1.5 31q0 79 -49 121t-141 42q-111 0 -186.5 -60t-114.5 -167h485zM674 -30q-287 0 -443 127t-156 351q0 153 51 281t147 225q92 94 230 149t303 55q251 0 378.5 -101.5t127.5 -299.5q0 -68 -13.5 -133t-35.5 -129h-834v-11.5v-11.5q0 -117 82 -183
t251 -66q118 0 223.5 40t183.5 89h40l-67 -289q-105 -46 -221 -69.5t-247 -23.5zM1345 1676l-412 -393h-251l-230 393h255l134 -219l235 219h269z" />
    <glyph glyph-name="Gcircumflex" unicode="&#x11c;" horiz-adv-x="1661" 
d="M794 -31q-317 0 -496.5 150t-179.5 426q0 430 277 701.5t703 271.5q161 0 298.5 -27.5t285.5 -104.5l-85 -349h-43q-120 114 -227 158.5t-236 44.5q-131 0 -237 -53.5t-181 -144.5q-71 -86 -111 -204t-40 -247q0 -179 98 -263.5t319 -84.5q22 0 48 1t48 3l68 292h-297
l65 281h687l-170 -735q-133 -46 -283.5 -81t-310.5 -35zM1523 1656h-255l-134 219l-235 -219h-269l412 393h251z" />
    <glyph glyph-name="gcircumflex" unicode="&#x11d;" horiz-adv-x="1432" 
d="M1393 1123l-226 -994q-37 -160 -105 -266t-165 -169q-100 -65 -217 -91t-263 -26q-121 0 -232 14.5t-187 33.5l55 276h44q83 -32 168 -51t151 -19q95 0 165 17.5t110 50.5q43 35 68.5 86t41.5 125l5 21q-78 -53 -155 -84t-174 -31q-189 0 -295.5 95t-106.5 287
q0 331 187 543.5t454 212.5q96 0 174.5 -23t126.5 -58l25 50h351zM971 863q-29 13 -76.5 24.5t-83.5 11.5q-161 0 -259 -121t-98 -311q0 -86 42 -134t151 -48q53 0 107.5 20.5t102.5 48.5zM1298 1283h-255l-134 219l-235 -219h-269l412 393h251z" />
    <glyph glyph-name="Gbreve" unicode="&#x11e;" horiz-adv-x="1661" 
d="M794 -31q-317 0 -496.5 150t-179.5 426q0 430 277 701.5t703 271.5q161 0 298.5 -27.5t285.5 -104.5l-85 -349h-43q-120 114 -227 158.5t-236 44.5q-131 0 -237 -53.5t-181 -144.5q-71 -86 -111 -204t-40 -247q0 -179 98 -263.5t319 -84.5q22 0 48 1t48 3l68 292h-297
l65 281h687l-170 -735q-133 -46 -283.5 -81t-310.5 -35zM1568 2009q-49 -192 -170 -286.5t-304 -94.5q-146 0 -230 64.5t-84 193.5q0 31 3 57.5t12 65.5h217q-6 -24 -8.5 -44.5t-2.5 -35.5q0 -57 28 -90.5t100 -33.5q87 0 138 57.5t72 146.5h229z" />
    <glyph glyph-name="gbreve" unicode="&#x11f;" horiz-adv-x="1432" 
d="M1393 1123l-226 -994q-37 -160 -105 -266t-165 -169q-100 -65 -217 -91t-263 -26q-121 0 -232 14.5t-187 33.5l55 276h44q83 -32 168 -51t151 -19q95 0 165 17.5t110 50.5q43 35 68.5 86t41.5 125l5 21q-78 -53 -155 -84t-174 -31q-189 0 -295.5 95t-106.5 287
q0 331 187 543.5t454 212.5q96 0 174.5 -23t126.5 -58l25 50h351zM971 863q-29 13 -76.5 24.5t-83.5 11.5q-161 0 -259 -121t-98 -311q0 -86 42 -134t151 -48q53 0 107.5 20.5t102.5 48.5zM1282 1636q-49 -192 -170 -286.5t-304 -94.5q-146 0 -230 64.5t-84 193.5
q0 31 3 57.5t12 65.5h217q-6 -24 -8.5 -44.5t-2.5 -35.5q0 -57 28 -90.5t100 -33.5q87 0 138 57.5t72 146.5h229z" />
    <glyph glyph-name="Gdotaccent" unicode="&#x120;" horiz-adv-x="1661" 
d="M794 -31q-317 0 -496.5 150t-179.5 426q0 430 277 701.5t703 271.5q161 0 298.5 -27.5t285.5 -104.5l-85 -349h-43q-120 114 -227 158.5t-236 44.5q-131 0 -237 -53.5t-181 -144.5q-71 -86 -111 -204t-40 -247q0 -179 98 -263.5t319 -84.5q22 0 48 1t48 3l68 292h-297
l65 281h687l-170 -735q-133 -46 -283.5 -81t-310.5 -35zM1278 1656h-370l63 273h370z" />
    <glyph glyph-name="gdotaccent" unicode="&#x121;" horiz-adv-x="1432" 
d="M1393 1123l-226 -994q-37 -160 -105 -266t-165 -169q-100 -65 -217 -91t-263 -26q-121 0 -232 14.5t-187 33.5l55 276h44q83 -32 168 -51t151 -19q95 0 165 17.5t110 50.5q43 35 68.5 86t41.5 125l5 21q-78 -53 -155 -84t-174 -31q-189 0 -295.5 95t-106.5 287
q0 331 187 543.5t454 212.5q96 0 174.5 -23t126.5 -58l25 50h351zM971 863q-29 13 -76.5 24.5t-83.5 11.5q-161 0 -259 -121t-98 -311q0 -86 42 -134t151 -48q53 0 107.5 20.5t102.5 48.5zM1011 1283h-370l63 273h370z" />
    <glyph glyph-name="uni0122" unicode="&#x122;" horiz-adv-x="1661" 
d="M785 -30q-312 2 -489.5 152t-177.5 423q0 430 277 701.5t703 271.5q161 0 298.5 -27.5t285.5 -104.5l-85 -349h-43q-120 114 -227 158.5t-236 44.5q-131 0 -237 -53.5t-181 -144.5q-71 -86 -111 -204t-40 -247q0 -179 98 -263.5t319 -84.5q22 0 48 1t48 3l68 292h-297
l65 281h687l-170 -735q-84 -29 -177 -54.5t-191 -40.5q-22 -217 -135.5 -315t-322.5 -98q-38 0 -106.5 7t-101.5 17l46 200h23q25 -12 63 -23.5t87 -11.5q33 0 73 9t63 29q28 23 48 64t28 102z" />
    <glyph glyph-name="uni0123" unicode="&#x123;" horiz-adv-x="1432" 
d="M1393 1123l-226 -994q-37 -160 -105 -266t-165 -169q-100 -65 -217 -91t-263 -26q-121 0 -232 14.5t-187 33.5l55 276h44q83 -32 168 -51t151 -19q95 0 165 17.5t110 50.5q43 35 68.5 86t41.5 125l5 21q-78 -53 -155 -84t-174 -31q-189 0 -295.5 95t-106.5 287
q0 331 187 543.5t454 212.5q96 0 174.5 -23t126.5 -58l25 50h351zM971 863q-29 13 -76.5 24.5t-83.5 11.5q-161 0 -259 -121t-98 -311q0 -86 42 -134t151 -48q53 0 107.5 20.5t102.5 48.5zM1230 1676l-318 -393h-353l4 20l419 373h248z" />
    <glyph glyph-name="Hcircumflex" unicode="&#x124;" horiz-adv-x="1715" 
d="M1740 1489l-344 -1489h-386l152 658h-565l-152 -658h-386l344 1489h386l-127 -548h565l127 548h386zM1527 1656h-255l-134 219l-235 -219h-269l412 393h251z" />
    <glyph glyph-name="hcircumflex" unicode="&#x125;" horiz-adv-x="1459" 
d="M1356 869q0 -24 -4 -62t-13 -76l-169 -731h-364l129 557q14 64 22 108t8 79q0 67 -33.5 96.5t-121.5 29.5q-43 0 -99 -18.5t-125 -55.5l-184 -796h-362l359 1556h362l-128 -557q110 73 202 114t202 41q153 0 236 -74.5t83 -210.5zM1413 1656h-255l-134 219l-235 -219
h-269l412 393h251z" />
    <glyph glyph-name="Hbar" unicode="&#x126;" horiz-adv-x="1715" 
d="M1652 1107l-256 -1107h-386l152 658h-565l-152 -658h-386l256 1107h-133l48 210h133l40 172h386l-40 -172h565l40 172h386l-40 -172h133l-48 -210h-133zM1227 941l38 166h-565l-38 -166h565z" />
    <glyph glyph-name="hbar" unicode="&#x127;" horiz-adv-x="1459" 
d="M1356 869q0 -24 -4 -62t-13 -76l-169 -731h-364l129 557q14 64 22 108t8 79q0 67 -33.5 96.5t-121.5 29.5q-43 0 -99 -18.5t-125 -55.5l-184 -796h-362l286 1240h-129l46 201h129l27 115h362l-27 -115h324l-46 -201h-324l-55 -241q110 73 202 114t202 41q153 0 236 -74.5
t83 -210.5z" />
    <glyph glyph-name="Itilde" unicode="&#x128;" horiz-adv-x="1118" 
d="M865 0h-872l61 264h243l222 961h-243l61 264h872l-61 -264h-243l-222 -961h243zM1303 1991q-28 -156 -113.5 -243.5t-216.5 -87.5q-60 0 -107.5 21t-101.5 57q-27 19 -48.5 28t-44.5 9q-47 0 -71 -31t-42 -91h-219q27 155 113.5 243t216.5 88q62 0 108.5 -20.5
t100.5 -57.5q29 -20 47.5 -28.5t45.5 -8.5q49 0 73 32t40 90h219z" />
    <glyph glyph-name="itilde" unicode="&#x129;" horiz-adv-x="700" 
d="M662 1123l-260 -1123h-362l260 1123h362zM893 1600q-43 -171 -110 -238.5t-180 -67.5q-42 0 -73.5 17.5t-57.5 38.5q-22 19 -50 38t-49 19q-41 0 -59 -29t-33 -90h-172q33 148 107 226.5t182 78.5q41 0 74 -17t60 -37q30 -22 50.5 -38t46.5 -16q42 0 61 31t31 84h172z
" />
    <glyph glyph-name="Imacron" unicode="&#x12a;" horiz-adv-x="1118" 
d="M865 0h-872l61 264h243l222 961h-243l61 264h872l-61 -264h-243l-222 -961h243zM1197 1719h-802l48 210h802z" />
    <glyph glyph-name="imacron" unicode="&#x12b;" horiz-adv-x="700" 
d="M662 1123l-260 -1123h-362l260 1123h362zM851 1556l-48 -210h-609l48 210h609z" />
    <glyph glyph-name="Ibreve" unicode="&#x12c;" horiz-adv-x="1118" 
d="M865 0h-872l61 264h243l222 961h-243l61 264h872l-61 -264h-243l-222 -961h243zM1241 2009q-49 -192 -170 -286.5t-304 -94.5q-146 0 -230 64.5t-84 193.5q0 31 3 57.5t12 65.5h217q-6 -24 -8.5 -44.5t-2.5 -35.5q0 -57 28 -90.5t100 -33.5q87 0 138 57.5t72 146.5h229z
" />
    <glyph glyph-name="ibreve" unicode="&#x12d;" horiz-adv-x="700" 
d="M662 1123l-260 -1123h-362l260 1123h362zM882 1636q-37 -185 -139.5 -279t-255.5 -94q-130 0 -196.5 64.5t-66.5 189.5q0 32 2.5 55.5t10.5 63.5h186q-5 -24 -8 -51.5t-3 -45.5q0 -60 23 -92t83 -32q76 0 117.5 60.5t60.5 160.5h186z" />
    <glyph glyph-name="Iogonek" unicode="&#x12e;" horiz-adv-x="1118" 
d="M378 0h-385l61 264h243l222 961h-243l61 264h872l-61 -264h-243l-222 -961h243l-61 -264h-282q-12 -29 -19 -61.5t-7 -61.5q0 -49 34.5 -76.5t112.5 -27.5q35 0 90 10.5t86 23.5h9l-46 -200q-51 -13 -96.5 -18.5t-90.5 -5.5q-150 0 -236 55t-86 160q0 68 10 108t34 94z
" />
    <glyph glyph-name="iogonek" unicode="&#x12f;" horiz-adv-x="700" 
d="M-6 -202q0 78 23 153.5t51 168.5l232 1003h362l-260 -1123h-159q-12 -29 -19 -61.5t-7 -61.5q0 -49 34.5 -76.5t112.5 -27.5q35 0 90 10.5t86 23.5h9l-46 -200q-51 -13 -96.5 -18.5t-90.5 -5.5q-150 0 -236 55t-86 160zM772 1556l-63 -273h-382l63 273h382z" />
    <glyph glyph-name="Idotaccent" unicode="&#x130;" horiz-adv-x="1118" 
d="M865 0h-872l61 264h243l222 961h-243l61 264h872l-61 -264h-243l-222 -961h243zM991 1656h-370l63 273h370z" />
    <glyph glyph-name="dotlessi" unicode="&#x131;" horiz-adv-x="700" 
d="M662 1123l-260 -1123h-362l260 1123h362z" />
    <glyph glyph-name="IJ" unicode="&#x132;" horiz-adv-x="2063" 
d="M865 0h-872l61 264h243l222 961h-243l61 264h872l-61 -264h-243l-222 -961h243zM1864 437q-52 -225 -208.5 -342.5t-386.5 -117.5q-89 0 -163 7.5t-131 21.5l67 292h32q30 -17 74.5 -33t105.5 -16q95 0 156 78t107 278l141 610h-340l63 274h726z" />
    <glyph glyph-name="ij" unicode="&#x133;" horiz-adv-x="1490" 
d="M662 1123l-260 -1123h-362l260 1123h362zM772 1556l-63 -273h-382l63 273h382zM1452 1123l-259 -1119q-46 -196 -178.5 -311.5t-339.5 -115.5q-101 0 -175 8t-115 18l59 258h28q33 -12 66.5 -18t74.5 -6q95 1 149 50.5t81 168.5l190 823h-213l57 244h575zM1549 1556
l-63 -273h-382l63 273h382z" />
    <glyph glyph-name="Jcircumflex" unicode="&#x134;" horiz-adv-x="1137" 
d="M950 491q-61 -262 -229 -388t-460 -126q-107 0 -193 7.5t-154 21.5l71 308h36q43 -17 91.5 -33t129.5 -16q153 0 229 73t124 284l137 593h-340l63 274h726zM1281 1656h-255l-134 219l-235 -219h-269l412 393h251z" />
    <glyph glyph-name="jcircumflex" unicode="&#x135;" horiz-adv-x="825" 
d="M787 1123l-259 -1119q-46 -196 -178.5 -311.5t-339.5 -115.5q-101 0 -175 8t-115 18l59 258h28q33 -12 66.5 -18t74.5 -6q95 1 149 50.5t81 168.5l190 823h-213l57 244h575zM987 1283h-255l-134 219l-235 -219h-269l412 393h251z" />
    <glyph glyph-name="uni0136" unicode="&#x136;" horiz-adv-x="1579" 
d="M1466 0h-423l-335 603l-155 -135l-108 -468h-386l343 1489h386l-151 -656l672 656h456l-752 -693zM856 20q-17 -235 -132 -339t-329 -104q-38 0 -106.5 7t-101.5 17l46 200h23q25 -12 63 -23.5t87 -11.5q39 0 79.5 10.5t65.5 36.5q30 30 48.5 75.5t23.5 131.5h233z" />
    <glyph glyph-name="uni0137" unicode="&#x137;" horiz-adv-x="1374" 
d="M1245 0h-379l-221 496l-159 -142l-83 -354h-362l359 1556h362l-214 -929l502 496h415l-520 -489zM756 20q-17 -235 -132 -339t-329 -104q-38 0 -106.5 7t-101.5 17l46 200h23q25 -12 63 -23.5t87 -11.5q39 0 79.5 10.5t65.5 36.5q30 30 48.5 75.5t23.5 131.5h233z" />
    <glyph glyph-name="kgreenlandic" unicode="&#x138;" horiz-adv-x="1374" 
d="M1245 0h-379l-221 496l-159 -142l-83 -354h-362l259 1123h362l-114 -496l502 496h415l-520 -489z" />
    <glyph glyph-name="Lacute" unicode="&#x139;" horiz-adv-x="1305" 
d="M1134 0h-1075l344 1489h386l-277 -1201h689zM1258 2029l-438 -373h-256l313 393h381v-20z" />
    <glyph glyph-name="lacute" unicode="&#x13a;" horiz-adv-x="700" 
d="M762 1556l-360 -1556h-362l360 1556h362zM1102 2029l-438 -373h-256l313 393h381v-20z" />
    <glyph glyph-name="uni013B" unicode="&#x13b;" horiz-adv-x="1305" 
d="M612 0h-553l344 1489h386l-277 -1201h689l-67 -288h-289q-21 -221 -135 -322t-324 -101q-38 0 -106.5 7t-101.5 17l46 200h23q25 -12 63 -23.5t87 -11.5q38 0 77 9.5t64 33.5q28 26 48 71.5t26 119.5z" />
    <glyph glyph-name="uni013C" unicode="&#x13c;" horiz-adv-x="700" 
d="M188 -191q28 26 48 71.5t26 119.5h-222l360 1556h362l-355 -1536h90q-17 -235 -132 -339t-329 -104q-38 0 -106.5 7t-101.5 17l46 200h23q25 -12 63 -23.5t87 -11.5q38 0 77 9.5t64 33.5z" />
    <glyph glyph-name="Lcaron" unicode="&#x13d;" horiz-adv-x="1305" 
d="M1134 0h-1075l344 1489h386l-277 -1201h689zM1523 1556l-427 -589h-238l293 589h372z" />
    <glyph glyph-name="lcaron" unicode="&#x13e;" horiz-adv-x="1070" 
d="M762 1556l-360 -1556h-362l360 1556h362zM1399 1556l-427 -589h-238l293 589h372z" />
    <glyph glyph-name="Ldot" unicode="&#x13f;" horiz-adv-x="1305" 
d="M1134 0h-1075l344 1489h386l-277 -1201h689zM1228 584h-376l91 393h376z" />
    <glyph glyph-name="ldot" unicode="&#x140;" horiz-adv-x="1140" 
d="M762 1556l-360 -1556h-362l360 1556h362zM1109 584h-366l91 393h366z" />
    <glyph glyph-name="Lslash" unicode="&#x141;" horiz-adv-x="1305" 
d="M1134 0h-1075l110 476l-204 -141l59 255l204 141l175 758h386l-111 -482l404 272l-59 -255l-404 -272l-107 -464h689z" />
    <glyph glyph-name="lslash" unicode="&#x142;" horiz-adv-x="720" 
d="M228 772l182 784h362l-129 -558l183 116l-54 -233l-183 -116l-177 -765h-362l124 538l-181 -115l53 233z" />
    <glyph glyph-name="Nacute" unicode="&#x143;" horiz-adv-x="1734" 
d="M1415 0h-327l-437 1031l-238 -1031h-354l344 1489h430l374 -862l198 862h354zM1587 2029l-438 -373h-256l313 393h381v-20z" />
    <glyph glyph-name="nacute" unicode="&#x144;" horiz-adv-x="1459" 
d="M1355 869q0 -30 -4 -65t-13 -73l-168 -731h-364l128 557q14 62 22 106t8 82q0 65 -33 95t-121 30q-43 0 -99 -18.5t-126 -55.5l-183 -796h-362l259 1123h362l-29 -124q111 73 202.5 114t201.5 41q151 0 235 -73t84 -212zM1358 1656l-438 -373h-256l313 393h381v-20z" />
    <glyph glyph-name="uni0145" unicode="&#x145;" horiz-adv-x="1734" 
d="M1415 0h-327l-437 1031l-238 -1031h-354l344 1489h430l374 -862l198 862h354zM888 20q-17 -235 -132 -339t-329 -104q-38 0 -106.5 7t-101.5 17l46 200h23q25 -12 63 -23.5t87 -11.5q39 0 79.5 10.5t65.5 36.5q30 30 48.5 75.5t23.5 131.5h233z" />
    <glyph glyph-name="uni0146" unicode="&#x146;" horiz-adv-x="1459" 
d="M1355 869q0 -30 -4 -65t-13 -73l-168 -731h-364l128 557q14 62 22 106t8 82q0 65 -33 95t-121 30q-43 0 -99 -18.5t-126 -55.5l-183 -796h-362l259 1123h362l-29 -124q111 73 202.5 114t201.5 41q151 0 235 -73t84 -212zM737 20q-17 -235 -132 -339t-329 -104
q-38 0 -106.5 7t-101.5 17l46 200h23q25 -12 63 -23.5t87 -11.5q39 0 79.5 10.5t65.5 36.5q30 30 48.5 75.5t23.5 131.5h233z" />
    <glyph glyph-name="Ncaron" unicode="&#x147;" horiz-adv-x="1734" 
d="M1415 0h-327l-437 1031l-238 -1031h-354l344 1489h430l374 -862l198 862h354zM1605 2049l-412 -393h-251l-230 393h255l134 -219l235 219h269z" />
    <glyph glyph-name="ncaron" unicode="&#x148;" horiz-adv-x="1459" 
d="M1355 869q0 -30 -4 -65t-13 -73l-168 -731h-364l128 557q14 62 22 106t8 82q0 65 -33 95t-121 30q-43 0 -99 -18.5t-126 -55.5l-183 -796h-362l259 1123h362l-29 -124q111 73 202.5 114t201.5 41q151 0 235 -73t84 -212zM1379 1676l-412 -393h-251l-230 393h255l134 -219
l235 219h269z" />
    <glyph glyph-name="napostrophe" unicode="&#x149;" horiz-adv-x="1690" 
d="M1586 869q0 -30 -4 -65t-13 -73l-168 -731h-364l128 557q14 61 22 105.5t8 82.5q0 65 -33 95t-121 30q-43 0 -99 -18.5t-126 -55.5l-183 -796h-362l259 1123h362l-29 -124q111 73 202.5 114t201.5 41q151 0 235 -73t84 -212zM730 1556l-427 -589h-238l293 589h372z" />
    <glyph glyph-name="Eng" unicode="&#x14a;" horiz-adv-x="1734" 
d="M1089 -5l3 14l-441 1022l-238 -1031h-354l344 1489h430l376 -853l196 853h354l-347 -1503q-49 -208 -183 -308.5t-327 -100.5q-112 0 -187 9.5t-107 16.5l59 258h27q33 -12 91.5 -19.5t84.5 -7.5q25 0 64 4.5t64 18.5q30 17 55 49.5t36 88.5z" />
    <glyph glyph-name="eng" unicode="&#x14b;" horiz-adv-x="1459" 
d="M518 -163.5q35 -7.5 77 -7.5q96 0 147.5 60t86.5 211l105 457q14 62 22 106t8 82q0 65 -33 95t-121 30q-43 0 -99 -18.5t-126 -55.5l-183 -796h-362l259 1123h362l-29 -124q111 73 202.5 114t201.5 41q151 0 235 -73t84 -212q0 -30 -4 -65t-13 -73l-161 -701
q-49 -214 -189.5 -333.5t-326.5 -119.5q-98 0 -180.5 9t-106.5 15l58 251h28q23 -8 58 -15.5z" />
    <glyph glyph-name="Omacron" unicode="&#x14c;" horiz-adv-x="1741" 
d="M1707 935q0 -183 -62 -360t-180 -309q-129 -144 -301 -220.5t-396 -76.5q-305 0 -477.5 157.5t-172.5 433.5q0 194 66 369t189 308q120 129 297 206t386 77q306 0 478.5 -158t172.5 -427zM1158 427q68 89 106.5 206.5t38.5 270.5q0 160 -76.5 250.5t-218.5 90.5
q-93 0 -177.5 -42.5t-155.5 -129.5q-69 -83 -111 -206.5t-42 -277.5q0 -171 78.5 -258t217.5 -87q96 0 185 47.5t155 135.5zM1477 1719h-802l48 210h802z" />
    <glyph glyph-name="omacron" unicode="&#x14d;" horiz-adv-x="1404" 
d="M1335 712q0 -158 -53 -296t-149 -237q-100 -103 -232 -158.5t-308 -55.5q-251 0 -385 120t-134 332q0 150 50 285t148 238q95 101 233.5 159.5t310.5 58.5q252 0 385.5 -118.5t133.5 -327.5zM867 344q46 70 69.5 153t23.5 202q0 103 -45 158.5t-143 55.5
q-76 0 -133.5 -37t-101.5 -105q-41 -63 -64.5 -156t-23.5 -191q0 -115 51 -164.5t140 -49.5q65 0 125 35.5t102 98.5zM1247 1346h-802l48 210h802z" />
    <glyph glyph-name="Obreve" unicode="&#x14e;" horiz-adv-x="1741" 
d="M1707 935q0 -183 -62 -360t-180 -309q-129 -144 -301 -220.5t-396 -76.5q-305 0 -477.5 157.5t-172.5 433.5q0 194 66 369t189 308q120 129 297 206t386 77q306 0 478.5 -158t172.5 -427zM1158 427q68 89 106.5 206.5t38.5 270.5q0 160 -76.5 250.5t-218.5 90.5
q-93 0 -177.5 -42.5t-155.5 -129.5q-69 -83 -111 -206.5t-42 -277.5q0 -171 78.5 -258t217.5 -87q96 0 185 47.5t155 135.5zM1530 2009q-49 -192 -170 -286.5t-304 -94.5q-146 0 -230 64.5t-84 193.5q0 31 3 57.5t12 65.5h217q-6 -24 -8.5 -44.5t-2.5 -35.5q0 -57 28 -90.5
t100 -33.5q87 0 138 57.5t72 146.5h229z" />
    <glyph glyph-name="obreve" unicode="&#x14f;" horiz-adv-x="1404" 
d="M1335 712q0 -158 -53 -296t-149 -237q-100 -103 -232 -158.5t-308 -55.5q-251 0 -385 120t-134 332q0 150 50 285t148 238q95 101 233.5 159.5t310.5 58.5q252 0 385.5 -118.5t133.5 -327.5zM867 344q46 70 69.5 153t23.5 202q0 103 -45 158.5t-143 55.5
q-76 0 -133.5 -37t-101.5 -105q-41 -63 -64.5 -156t-23.5 -191q0 -115 51 -164.5t140 -49.5q65 0 125 35.5t102 98.5zM1284 1636q-49 -192 -170 -286.5t-304 -94.5q-146 0 -230 64.5t-84 193.5q0 31 3 57.5t12 65.5h217q-6 -24 -8.5 -44.5t-2.5 -35.5q0 -57 28 -90.5
t100 -33.5q87 0 138 57.5t72 146.5h229z" />
    <glyph glyph-name="Ohungarumlaut" unicode="&#x150;" horiz-adv-x="1741" 
d="M1707 935q0 -183 -62 -360t-180 -309q-129 -144 -301 -220.5t-396 -76.5q-305 0 -477.5 157.5t-172.5 433.5q0 194 66 369t189 308q120 129 297 206t386 77q306 0 478.5 -158t172.5 -427zM1158 427q68 89 106.5 206.5t38.5 270.5q0 160 -76.5 250.5t-218.5 90.5
q-93 0 -177.5 -42.5t-155.5 -129.5q-69 -83 -111 -206.5t-42 -277.5q0 -171 78.5 -258t217.5 -87q96 0 185 47.5t155 135.5zM1674 2049l-348 -393h-209l249 393h308zM1250 2049l-348 -393h-209l249 393h308z" />
    <glyph glyph-name="ohungarumlaut" unicode="&#x151;" horiz-adv-x="1404" 
d="M1335 712q0 -158 -53 -296t-149 -237q-100 -103 -232 -158.5t-308 -55.5q-251 0 -385 120t-134 332q0 150 50 285t148 238q95 101 233.5 159.5t310.5 58.5q252 0 385.5 -118.5t133.5 -327.5zM867 344q46 70 69.5 153t23.5 202q0 103 -45 158.5t-143 55.5
q-76 0 -133.5 -37t-101.5 -105q-41 -63 -64.5 -156t-23.5 -191q0 -115 51 -164.5t140 -49.5q65 0 125 35.5t102 98.5zM1428 1676l-348 -393h-209l249 393h308zM1004 1676l-348 -393h-209l249 393h308z" />
    <glyph glyph-name="OE" unicode="&#x152;" horiz-adv-x="2325" 
d="M2064 0h-1108q-179 0 -335 30t-266 97q-112 68 -174.5 178.5t-62.5 270.5q0 251 96.5 442t288.5 315q128 84 290.5 120t399.5 36h1215l-65 -282h-695l-62 -266h645l-66 -283h-645l-87 -376h695zM1049 278l215 932q-215 0 -309 -19.5t-192 -80.5q-107 -66 -174 -189
t-67 -296q0 -192 119 -269.5t408 -77.5z" />
    <glyph glyph-name="oe" unicode="&#x153;" horiz-adv-x="2187" 
d="M2144 757q0 -68 -13.5 -133t-35.5 -129h-814v-11.5v-11.5q0 -128 86.5 -188.5t236.5 -60.5q110 0 214.5 40t182.5 89h40l-67 -289q-102 -44 -214 -68.5t-244 -24.5q-154 0 -268 37.5t-188 106.5q-95 -72 -209 -110.5t-258 -38.5q-251 0 -385 119t-134 333q0 150 50 285
t148 238q95 101 233.5 159.5t310.5 58.5q132 0 231 -33t164 -95q86 61 198 94.5t239 33.5q246 0 371 -101.5t125 -299.5zM1787 770q0 79 -47.5 121t-132.5 42q-107 0 -179 -59.5t-112 -167.5h465q3 18 4.5 33t1.5 31zM960 699q0 102 -45.5 158t-142.5 56q-76 0 -133.5 -37
t-101.5 -105q-41 -63 -64.5 -156t-23.5 -191q0 -115 51 -164.5t140 -49.5q65 0 125 35.5t102 98.5q46 70 69.5 153t23.5 202z" />
    <glyph glyph-name="Racute" unicode="&#x154;" horiz-adv-x="1602" 
d="M1555 1114q0 -179 -109 -301t-296 -184l344 -629h-429l-280 546h-216l-126 -546h-384l344 1489h581q273 0 422 -92.5t149 -282.5zM1141 1050q0 90 -57.5 127.5t-169.5 37.5h-190l-93 -401h189q153 0 237 62.5t84 173.5zM1486 2029l-438 -373h-256l313 393h381v-20z" />
    <glyph glyph-name="racute" unicode="&#x155;" horiz-adv-x="1018" 
d="M1036 780h-32q-24 8 -68 12t-87 4q-71 0 -137 -10.5t-136 -33.5l-174 -752h-362l260 1123h362l-38 -165q102 75 203.5 122t204.5 47q19 0 42.5 -1t41.5 -3zM1158 1656l-438 -373h-256l313 393h381v-20z" />
    <glyph glyph-name="uni0156" unicode="&#x156;" horiz-adv-x="1602" 
d="M1555 1114q0 -179 -109 -301t-296 -184l344 -629h-429l-280 546h-216l-126 -546h-384l344 1489h581q273 0 422 -92.5t149 -282.5zM1141 1050q0 90 -57.5 127.5t-169.5 37.5h-190l-93 -401h189q153 0 237 62.5t84 173.5zM870 20q-17 -235 -132 -339t-329 -104
q-38 0 -106.5 7t-101.5 17l46 200h23q25 -12 63 -23.5t87 -11.5q39 0 79.5 10.5t65.5 36.5q30 30 48.5 75.5t23.5 131.5h233z" />
    <glyph glyph-name="uni0157" unicode="&#x157;" horiz-adv-x="1018" 
d="M11 -222.5q38 -11.5 87 -11.5q38 0 77 9.5t64 33.5q28 26 48 71.5t26 119.5h-273l260 1123h362l-38 -165q102 75 203.5 122t204.5 47q19 0 42.5 -1t41.5 -3l-80 -343h-32q-24 8 -68 12t-87 4q-71 0 -137 -10.5t-136 -33.5l-169 -732h141q-17 -235 -132 -339t-329 -104
q-38 0 -106.5 7t-101.5 17l46 200h23q25 -12 63 -23.5z" />
    <glyph glyph-name="Rcaron" unicode="&#x158;" horiz-adv-x="1602" 
d="M1555 1114q0 -179 -109 -301t-296 -184l344 -629h-429l-280 546h-216l-126 -546h-384l344 1489h581q273 0 422 -92.5t149 -282.5zM1141 1050q0 90 -57.5 127.5t-169.5 37.5h-190l-93 -401h189q153 0 237 62.5t84 173.5zM1442 2049l-412 -393h-251l-230 393h255l134 -219
l235 219h269z" />
    <glyph glyph-name="rcaron" unicode="&#x159;" horiz-adv-x="1018" 
d="M1036 780h-32q-24 8 -68 12t-87 4q-71 0 -137 -10.5t-136 -33.5l-174 -752h-362l260 1123h362l-38 -165q102 75 203.5 122t204.5 47q19 0 42.5 -1t41.5 -3zM1212 1676l-412 -393h-251l-230 393h255l134 -219l235 219h269z" />
    <glyph glyph-name="Sacute" unicode="&#x15a;" horiz-adv-x="1455" 
d="M606 -27q-191 0 -340.5 33t-258.5 82l77 357h42q103 -94 242 -145.5t299 -51.5q164 0 241 44.5t77 127.5q0 31 -12.5 53.5t-48.5 44.5t-98.5 43.5t-161.5 49.5q-109 30 -195.5 65t-147.5 83q-61 49 -92.5 113t-31.5 153q0 224 197.5 357.5t540.5 133.5q165 0 311.5 -27
t248.5 -73l-73 -343h-41q-78 72 -205.5 120.5t-278.5 48.5q-148 0 -229 -43t-81 -119q0 -35 12 -58t49 -45q32 -20 101 -43.5t162 -48.5q250 -67 357 -157t107 -244q0 -129 -58 -227t-160 -159q-107 -65 -243 -95t-308 -30zM1373 2029l-438 -373h-256l313 393h381v-20z" />
    <glyph glyph-name="sacute" unicode="&#x15b;" horiz-adv-x="1215" 
d="M473 -31q-144 0 -279 27t-207 63l69 296h33q22 -19 55.5 -42t95.5 -48q53 -23 123 -39.5t151 -16.5q121 0 181.5 28t60.5 80q0 40 -43 61t-178 52q-229 53 -313.5 128t-84.5 187q0 190 170 299.5t460 109.5q126 0 252 -25.5t185 -54.5l-66 -284h-31q-71 55 -171.5 89.5
t-206.5 34.5q-115 0 -176.5 -27.5t-61.5 -84.5q0 -44 53 -67.5t167 -48.5q212 -46 305.5 -116t93.5 -196q0 -188 -172 -296.5t-465 -108.5zM1212 1656l-438 -373h-256l313 393h381v-20z" />
    <glyph glyph-name="Scircumflex" unicode="&#x15c;" horiz-adv-x="1455" 
d="M606 -27q-191 0 -340.5 33t-258.5 82l77 357h42q103 -94 242 -145.5t299 -51.5q164 0 241 44.5t77 127.5q0 31 -12.5 53.5t-48.5 44.5t-98.5 43.5t-161.5 49.5q-109 30 -195.5 65t-147.5 83q-61 49 -92.5 113t-31.5 153q0 224 197.5 357.5t540.5 133.5q165 0 311.5 -27
t248.5 -73l-73 -343h-41q-78 72 -205.5 120.5t-278.5 48.5q-148 0 -229 -43t-81 -119q0 -35 12 -58t49 -45q32 -20 101 -43.5t162 -48.5q250 -67 357 -157t107 -244q0 -129 -58 -227t-160 -159q-107 -65 -243 -95t-308 -30zM1354 1656h-255l-134 219l-235 -219h-269l412 393
h251z" />
    <glyph glyph-name="scircumflex" unicode="&#x15d;" horiz-adv-x="1215" 
d="M473 -31q-144 0 -279 27t-207 63l69 296h33q22 -19 55.5 -42t95.5 -48q53 -23 123 -39.5t151 -16.5q121 0 181.5 28t60.5 80q0 40 -43 61t-178 52q-229 53 -313.5 128t-84.5 187q0 190 170 299.5t460 109.5q126 0 252 -25.5t185 -54.5l-66 -284h-31q-71 55 -171.5 89.5
t-206.5 34.5q-115 0 -176.5 -27.5t-61.5 -84.5q0 -44 53 -67.5t167 -48.5q212 -46 305.5 -116t93.5 -196q0 -188 -172 -296.5t-465 -108.5zM1178 1283h-255l-134 219l-235 -219h-269l412 393h251z" />
    <glyph glyph-name="Scedilla" unicode="&#x15e;" horiz-adv-x="1455" 
d="M606 -27q-191 0 -340.5 33t-258.5 82l77 357h42q103 -94 242 -145.5t299 -51.5q164 0 241 44.5t77 127.5q0 31 -12.5 53.5t-48.5 44.5t-98.5 43.5t-161.5 49.5q-109 30 -195.5 65t-147.5 83q-61 49 -92.5 113t-31.5 153q0 224 197.5 357.5t540.5 133.5q165 0 311.5 -27
t248.5 -73l-73 -343h-41q-78 72 -205.5 120.5t-278.5 48.5q-148 0 -229 -43t-81 -119q0 -35 12 -58t49 -45q32 -20 101 -43.5t162 -48.5q250 -67 357 -157t107 -244q0 -129 -58 -227t-160 -159q-51 -30 -109.5 -53t-123.5 -38q-19 -228 -134 -329t-326 -101q-38 0 -106.5 7
t-101.5 17l46 200h23q25 -12 63 -23.5t87 -11.5q36 0 74 8.5t63 30.5q27 24 47 63t29 108q-19 0 -40 -1.5t-42 -1.5z" />
    <glyph glyph-name="scedilla" unicode="&#x15f;" horiz-adv-x="1215" 
d="M473 -30q-144 0 -279 26.5t-207 62.5l69 296h33q22 -19 55.5 -42t95.5 -48q53 -23 123 -39.5t151 -16.5q121 0 181.5 28t60.5 80q0 40 -43 61t-178 52q-229 53 -313.5 128t-84.5 187q0 190 170 299.5t460 109.5q126 0 252 -25.5t185 -54.5l-66 -284h-31
q-71 55 -171.5 89.5t-206.5 34.5q-115 0 -176.5 -27.5t-61.5 -84.5q0 -44 53 -67.5t167 -48.5q212 -46 305.5 -116t93.5 -196q0 -129 -84.5 -222.5t-235.5 -139.5q-19 -230 -133.5 -332.5t-326.5 -102.5q-38 0 -106.5 7t-101.5 17l46 200h23q25 -12 63 -23.5t87 -11.5
q33 0 73 9.5t63 29.5q28 23 48 64t28 103q-19 0 -39.5 -1t-40.5 -1z" />
    <glyph glyph-name="Scaron" unicode="&#x160;" horiz-adv-x="1455" 
d="M606 -27q-191 0 -340.5 33t-258.5 82l77 357h42q103 -94 242 -145.5t299 -51.5q164 0 241 44.5t77 127.5q0 31 -12.5 53.5t-48.5 44.5t-98.5 43.5t-161.5 49.5q-109 30 -195.5 65t-147.5 83q-61 49 -92.5 113t-31.5 153q0 224 197.5 357.5t540.5 133.5q165 0 311.5 -27
t248.5 -73l-73 -343h-41q-78 72 -205.5 120.5t-278.5 48.5q-148 0 -229 -43t-81 -119q0 -35 12 -58t49 -45q32 -20 101 -43.5t162 -48.5q250 -67 357 -157t107 -244q0 -129 -58 -227t-160 -159q-107 -65 -243 -95t-308 -30zM1464 2049l-412 -393h-251l-230 393h255l134 -219
l235 219h269z" />
    <glyph glyph-name="scaron" unicode="&#x161;" horiz-adv-x="1215" 
d="M473 -31q-144 0 -279 27t-207 63l69 296h33q22 -19 55.5 -42t95.5 -48q53 -23 123 -39.5t151 -16.5q121 0 181.5 28t60.5 80q0 40 -43 61t-178 52q-229 53 -313.5 128t-84.5 187q0 190 170 299.5t460 109.5q126 0 252 -25.5t185 -54.5l-66 -284h-31q-71 55 -171.5 89.5
t-206.5 34.5q-115 0 -176.5 -27.5t-61.5 -84.5q0 -44 53 -67.5t167 -48.5q212 -46 305.5 -116t93.5 -196q0 -188 -172 -296.5t-465 -108.5zM1281 1676l-412 -393h-251l-230 393h255l134 -219l235 219h269z" />
    <glyph glyph-name="uni0162" unicode="&#x162;" horiz-adv-x="1396" 
d="M595 -119.5q20 45.5 26 119.5h-244l277 1201h-464l66 288h1314l-66 -288h-464l-272 -1181h88q-17 -235 -132 -339t-329 -104q-38 0 -106.5 7t-101.5 17l46 200h23q25 -12 63 -23.5t87 -11.5q38 0 77 9.5t64 33.5q28 26 48 71.5z" />
    <glyph glyph-name="uni0163" unicode="&#x163;" horiz-adv-x="933" 
d="M458 -21q-175 3 -254.5 63.5t-79.5 179.5q0 32 5 62t13 70l122 532h-148l55 237h148l74 321h361l-74 -321h338l-55 -237h-338l-93 -405q-10 -42 -19 -84.5t-9 -72.5q0 -60 33.5 -83.5t103.5 -23.5q28 0 73.5 10.5t72.5 23.5h30l-56 -241q-15 -3 -31 -7t-37 -7
q-22 -222 -136.5 -320.5t-322.5 -98.5q-38 0 -106.5 7t-101.5 17l46 200h23q25 -12 63 -23.5t87 -11.5q33 0 73.5 10t63.5 30q34 29 51.5 71t24.5 102z" />
    <glyph glyph-name="Tcaron" unicode="&#x164;" horiz-adv-x="1396" 
d="M1504 1201h-464l-277 -1201h-386l277 1201h-464l66 288h1314zM1448 2049l-412 -393h-251l-230 393h255l134 -219l235 219h269z" />
    <glyph glyph-name="tcaron" unicode="&#x165;" horiz-adv-x="953" 
d="M471 -22q-187 0 -267 61.5t-80 182.5q0 32 5 62t13 70l122 532h-148l55 237h148l74 321h361l-74 -321h338l-55 -237h-338l-93 -405q-10 -42 -19 -84.5t-9 -72.5q0 -60 33.5 -83.5t103.5 -23.5q28 0 73.5 10.5t72.5 23.5h30l-56 -241q-61 -15 -128.5 -23.5t-161.5 -8.5z
M1473 1846l-359 -547h-226l245 547h340z" />
    <glyph glyph-name="Tbar" unicode="&#x166;" horiz-adv-x="1396" 
d="M517 608h-281l51 223h282l85 370h-464l66 288h1314l-66 -288h-464l-85 -370h281l-51 -223h-282l-140 -608h-386z" />
    <glyph glyph-name="tbar" unicode="&#x167;" horiz-adv-x="933" 
d="M471 -22q-187 0 -267 61.5t-80 182.5q0 32 5 62t13 70l27 117h-138l47 206h138l48 209h-148l55 237h148l74 321h361l-74 -321h338l-55 -237h-338l-48 -209h228l-47 -206h-228q-10 -42 -18 -79.5t-8 -67.5q0 -60 33.5 -83.5t103.5 -23.5q28 0 73.5 10.5t72.5 23.5h30
l-56 -241q-61 -15 -128.5 -23.5t-161.5 -8.5z" />
    <glyph glyph-name="Utilde" unicode="&#x168;" horiz-adv-x="1663" 
d="M1710 1489l-216 -930q-73 -309 -247 -448.5t-504 -139.5q-294 0 -445 105.5t-151 319.5q0 44 7 89t15 82l214 922h388l-214 -923q-7 -28 -11.5 -61.5t-4.5 -55.5q0 -94 56.5 -142.5t187.5 -48.5q127 0 205.5 70t112.5 218l219 943h388zM1573 1991q-28 -156 -113.5 -243.5
t-216.5 -87.5q-60 0 -107.5 21t-101.5 57q-27 19 -48.5 28t-44.5 9q-47 0 -71 -31t-42 -91h-219q27 155 113.5 243t216.5 88q62 0 108.5 -20.5t100.5 -57.5q29 -20 47.5 -28.5t45.5 -8.5q49 0 73 32t40 90h219z" />
    <glyph glyph-name="utilde" unicode="&#x169;" horiz-adv-x="1459" 
d="M1420 1123l-260 -1123h-362l29 124q-54 -35 -105.5 -65.5t-97.5 -48.5q-58 -24 -106 -32.5t-95 -8.5q-148 0 -233.5 71t-85.5 210q0 38 4 70.5t13 71.5l169 731h364l-129 -557q-15 -64 -22.5 -110t-7.5 -78q0 -66 32 -95.5t121 -29.5q44 0 101.5 19t124.5 55l184 796h362
zM1420 1618q-28 -156 -113.5 -243.5t-216.5 -87.5q-60 0 -107.5 21t-101.5 57q-27 19 -48.5 28t-44.5 9q-47 0 -71 -31t-42 -91h-219q27 155 113.5 243t216.5 88q62 0 108.5 -20.5t100.5 -57.5q29 -20 47.5 -28.5t45.5 -8.5q49 0 73 32t40 90h219z" />
    <glyph glyph-name="Umacron" unicode="&#x16a;" horiz-adv-x="1663" 
d="M1710 1489l-216 -930q-73 -309 -247 -448.5t-504 -139.5q-294 0 -445 105.5t-151 319.5q0 44 7 89t15 82l214 922h388l-214 -923q-7 -28 -11.5 -61.5t-4.5 -55.5q0 -94 56.5 -142.5t187.5 -48.5q127 0 205.5 70t112.5 218l219 943h388zM1467 1719h-802l48 210h802z" />
    <glyph glyph-name="umacron" unicode="&#x16b;" horiz-adv-x="1459" 
d="M1420 1123l-260 -1123h-362l29 124q-54 -35 -105.5 -65.5t-97.5 -48.5q-58 -24 -106 -32.5t-95 -8.5q-148 0 -233.5 71t-85.5 210q0 38 4 70.5t13 71.5l169 731h364l-129 -557q-15 -64 -22.5 -110t-7.5 -78q0 -66 32 -95.5t121 -29.5q44 0 101.5 19t124.5 55l184 796h362
zM1292 1346h-802l48 210h802z" />
    <glyph glyph-name="Ubreve" unicode="&#x16c;" horiz-adv-x="1663" 
d="M1710 1489l-216 -930q-73 -309 -247 -448.5t-504 -139.5q-294 0 -445 105.5t-151 319.5q0 44 7 89t15 82l214 922h388l-214 -923q-7 -28 -11.5 -61.5t-4.5 -55.5q0 -94 56.5 -142.5t187.5 -48.5q127 0 205.5 70t112.5 218l219 943h388zM1522 2009q-49 -192 -170 -286.5
t-304 -94.5q-146 0 -230 64.5t-84 193.5q0 31 3 57.5t12 65.5h217q-6 -24 -8.5 -44.5t-2.5 -35.5q0 -57 28 -90.5t100 -33.5q87 0 138 57.5t72 146.5h229z" />
    <glyph glyph-name="ubreve" unicode="&#x16d;" horiz-adv-x="1459" 
d="M1420 1123l-260 -1123h-362l29 124q-54 -35 -105.5 -65.5t-97.5 -48.5q-58 -24 -106 -32.5t-95 -8.5q-148 0 -233.5 71t-85.5 210q0 38 4 70.5t13 71.5l169 731h364l-129 -557q-15 -64 -22.5 -110t-7.5 -78q0 -66 32 -95.5t121 -29.5q44 0 101.5 19t124.5 55l184 796h362
zM1331 1636q-49 -192 -170 -286.5t-304 -94.5q-146 0 -230 64.5t-84 193.5q0 31 3 57.5t12 65.5h217q-6 -24 -8.5 -44.5t-2.5 -35.5q0 -57 28 -90.5t100 -33.5q87 0 138 57.5t72 146.5h229z" />
    <glyph glyph-name="Uring" unicode="&#x16e;" horiz-adv-x="1663" 
d="M1710 1489l-216 -930q-73 -309 -247 -448.5t-504 -139.5q-294 0 -445 105.5t-151 319.5q0 44 7 89t15 82l214 922h388l-214 -923q-7 -28 -11.5 -61.5t-4.5 -55.5q0 -94 56.5 -142.5t187.5 -48.5q127 0 205.5 70t112.5 218l219 943h388zM1044 1427q-121 0 -205.5 72
t-84.5 192q0 139 109 240t255 101q127 0 207.5 -72t80.5 -187q0 -140 -106 -243t-256 -103zM1221 1756q0 53 -30.5 87t-86.5 34q-73 0 -119 -55t-46 -119q0 -51 31 -86t88 -35q69 0 116 53t47 121z" />
    <glyph glyph-name="uring" unicode="&#x16f;" horiz-adv-x="1459" 
d="M1420 1123l-260 -1123h-362l29 124q-54 -35 -105.5 -65.5t-97.5 -48.5q-58 -24 -106 -32.5t-95 -8.5q-148 0 -233.5 71t-85.5 210q0 38 4 70.5t13 71.5l169 731h364l-129 -557q-15 -64 -22.5 -110t-7.5 -78q0 -66 32 -95.5t121 -29.5q44 0 101.5 19t124.5 55l184 796h362
zM857 1117q-121 0 -205.5 72t-84.5 192q0 139 109 240t255 101q127 0 207.5 -72t80.5 -187q0 -140 -106 -243t-256 -103zM1034 1446q0 53 -30.5 87t-86.5 34q-73 0 -119 -55t-46 -119q0 -51 31 -86t88 -35q69 0 116 53t47 121z" />
    <glyph glyph-name="Uhungarumlaut" unicode="&#x170;" horiz-adv-x="1663" 
d="M1710 1489l-216 -930q-73 -309 -247 -448.5t-504 -139.5q-294 0 -445 105.5t-151 319.5q0 44 7 89t15 82l214 922h388l-214 -923q-7 -28 -11.5 -61.5t-4.5 -55.5q0 -94 56.5 -142.5t187.5 -48.5q127 0 205.5 70t112.5 218l219 943h388zM1679 2049l-348 -393h-209l249 393
h308zM1255 2049l-348 -393h-209l249 393h308z" />
    <glyph glyph-name="uhungarumlaut" unicode="&#x171;" horiz-adv-x="1459" 
d="M1420 1123l-260 -1123h-362l29 124q-54 -35 -105.5 -65.5t-97.5 -48.5q-58 -24 -106 -32.5t-95 -8.5q-148 0 -233.5 71t-85.5 210q0 38 4 70.5t13 71.5l169 731h364l-129 -557q-15 -64 -22.5 -110t-7.5 -78q0 -66 32 -95.5t121 -29.5q44 0 101.5 19t124.5 55l184 796h362
zM1483 1676l-348 -393h-209l249 393h308zM1059 1676l-348 -393h-209l249 393h308z" />
    <glyph glyph-name="Uogonek" unicode="&#x172;" horiz-adv-x="1663" 
d="M775 -28h-16h-16q-294 0 -445 105t-151 319q0 44 7 89t15 82l214 922h388l-214 -923q-7 -28 -11.5 -61.5t-4.5 -55.5q0 -94 56.5 -142.5t187.5 -48.5q127 0 205.5 70t112.5 218l219 943h388l-216 -930q-57 -244 -177 -381t-328 -182q-12 -30 -18 -60t-6 -59
q0 -49 34.5 -76.5t112.5 -27.5q35 0 90 10.5t86 23.5h9l-46 -200q-51 -13 -96.5 -18.5t-90.5 -5.5q-150 0 -236 55t-86 160q0 58 7.5 92.5t25.5 81.5z" />
    <glyph glyph-name="uogonek" unicode="&#x173;" horiz-adv-x="1459" 
d="M752 -200q0 80 21.5 152.5t53.5 171.5q-54 -35 -105.5 -65.5t-97.5 -48.5q-58 -24 -106 -32.5t-95 -8.5q-148 0 -233.5 71t-85.5 210q0 38 4 70.5t13 71.5l169 731h364l-129 -557q-15 -64 -22.5 -110t-7.5 -78q0 -66 32 -95.5t121 -29.5q44 0 101.5 19t124.5 55l184 796
h362l-260 -1123h-158q-12 -29 -19 -61.5t-7 -61.5q0 -49 34.5 -76.5t112.5 -27.5q35 0 90 10.5t86 23.5h9l-46 -200q-51 -13 -96.5 -18.5t-90.5 -5.5q-150 0 -236.5 56t-86.5 161z" />
    <glyph glyph-name="Wcircumflex" unicode="&#x174;" horiz-adv-x="2311" 
d="M2459 1489l-724 -1489h-412l-64 987l-483 -987h-428l-68 1489h401l3 -1025l500 1025h383l45 -1025l456 1025h391zM1837 1656h-255l-134 219l-235 -219h-269l412 393h251z" />
    <glyph glyph-name="wcircumflex" unicode="&#x175;" horiz-adv-x="2006" 
d="M2091 1123l-587 -1123h-382l-75 757l-379 -757h-387l-106 1123h368l33 -774l399 774h319l69 -774l348 774h380zM1583 1283h-255l-134 219l-235 -219h-269l412 393h251z" />
    <glyph glyph-name="Ycircumflex" unicode="&#x176;" horiz-adv-x="1509" 
d="M1715 1489l-759 -913l-133 -576h-386l129 558l-342 931h411l191 -583l445 583h444zM1410 1656h-255l-134 219l-235 -219h-269l412 393h251z" />
    <glyph glyph-name="ycircumflex" unicode="&#x177;" horiz-adv-x="1333" 
d="M454 -412h-395l286 434l-185 1101h368l97 -736l428 736h380zM1241 1283h-255l-134 219l-235 -219h-269l412 393h251z" />
    <glyph glyph-name="Ydieresis" unicode="&#x178;" horiz-adv-x="1509" 
d="M1715 1489l-759 -913l-133 -576h-386l129 558l-342 931h411l191 -583l445 583h444zM1439 1929l-63 -273h-297l63 273h297zM902 1929l-63 -273h-297l63 273h297z" />
    <glyph glyph-name="Zacute" unicode="&#x179;" horiz-adv-x="1417" 
d="M1209 0h-1251l64 274l984 932h-733l65 283h1175l-65 -279l-981 -927h808zM1428 2029l-438 -373h-256l313 393h381v-20z" />
    <glyph glyph-name="zacute" unicode="&#x17a;" horiz-adv-x="1222" 
d="M1005 0h-1055l52 221l738 649h-565l59 253h1020l-51 -217l-729 -648h591zM1263 1656l-438 -373h-256l313 393h381v-20z" />
    <glyph glyph-name="Zdotaccent" unicode="&#x17b;" horiz-adv-x="1417" 
d="M1209 0h-1251l64 274l984 932h-733l65 283h1175l-65 -279l-981 -927h808zM1093 1656h-370l63 273h370z" />
    <glyph glyph-name="zdotaccent" unicode="&#x17c;" horiz-adv-x="1222" 
d="M1005 0h-1055l52 221l738 649h-565l59 253h1020l-51 -217l-729 -648h591zM922 1283h-370l63 273h370z" />
    <glyph glyph-name="Zcaron" unicode="&#x17d;" horiz-adv-x="1417" 
d="M1209 0h-1251l64 274l984 932h-733l65 283h1175l-65 -279l-981 -927h808zM1447 2049l-412 -393h-251l-230 393h255l134 -219l235 219h269z" />
    <glyph glyph-name="zcaron" unicode="&#x17e;" horiz-adv-x="1222" 
d="M1005 0h-1055l52 221l738 649h-565l59 253h1020l-51 -217l-729 -648h591zM1286 1676l-412 -393h-251l-230 393h255l134 -219l235 219h269z" />
    <glyph glyph-name="longs" unicode="&#x17f;" horiz-adv-x="706" 
d="M1038 1292h-27q-23 8 -65.5 16.5t-78.5 8.5q-88 0 -135.5 -39t-72.5 -147l-260 -1131h-362l266 1152q46 209 171.5 311.5t357.5 102.5q88 0 153 -5.5t112 -14.5z" />
    <glyph glyph-name="uni018F" unicode="&#x18f;" horiz-adv-x="1652" 
d="M1617 989q0 -421 -249 -713q-261 -307 -671 -307q-265 0 -417 130q-161 136 -161 391q0 144 65 426h1047q0 175 -64 250q-68 79 -236 79q-133 0 -279 -69q-64 -30 -184 -114h-39l78 340q268 118 538 118q282 0 433 -153q139 -140 139 -378zM1168 613h-664q-5 -57 -5 -93
q0 -122 67 -196t186 -74q145 0 263 114q101 98 153 249z" />
    <glyph glyph-name="florin" unicode="&#x192;" horiz-adv-x="1456" 
d="M902 657l-64 -410q-39 -237 -182 -342t-374 -105q-66 0 -140.5 8t-134.5 20l63 271h30q29 -10 72.5 -18.5t85.5 -8.5q100 0 154.5 49.5t71.5 164.5l56 371h-195l32 217h194l32 209q33 214 173 325.5t391 111.5q76 0 147 -9t117 -20l-62 -270h-30q-26 9 -71 18t-87 9
q-96 0 -151.5 -44.5t-71.5 -160.5l-23 -169h301l-32 -217h-302z" />
    <glyph glyph-name="Ohorn" unicode="&#x1a0;" horiz-adv-x="1871" 
d="M1707 935q0 -183 -62 -360t-180 -309q-129 -144 -301 -220.5t-396 -76.5q-305 0 -477.5 157.5t-172.5 433.5q0 194 66 369t189 308q120 129 297 206t386 77q230 0 385 -90t223 -254q106 11 153 95.5t61 217.5h221q-20 -253 -131.5 -369.5t-263.5 -127.5q2 -14 2.5 -28.5
t0.5 -28.5zM1158 427q68 89 106.5 206.5t38.5 270.5q0 160 -76.5 250.5t-218.5 90.5q-93 0 -177.5 -42.5t-155.5 -129.5q-69 -83 -111 -206.5t-42 -277.5q0 -171 78.5 -258t217.5 -87q96 0 185 47.5t155 135.5zM1741 0z" />
    <glyph glyph-name="ohorn" unicode="&#x1a1;" horiz-adv-x="1404" 
d="M1335 712q0 -158 -53 -296t-149 -237q-100 -103 -232 -158.5t-308 -55.5q-251 0 -385 120t-134 332q0 150 50 285t148 238q95 101 233.5 159.5t310.5 58.5q68 0 128 -9t111 -26q111 12 161.5 96t64.5 217h221q-15 -189 -77.5 -295.5t-169.5 -160.5q41 -55 60.5 -121.5
t19.5 -146.5zM867 344q46 70 69.5 153t23.5 202q0 103 -45 158.5t-143 55.5q-76 0 -133.5 -37t-101.5 -105q-41 -63 -64.5 -156t-23.5 -191q0 -115 51 -164.5t140 -49.5q65 0 125 35.5t102 98.5z" />
    <glyph glyph-name="Uhorn" unicode="&#x1af;" horiz-adv-x="1733" 
d="M1667 1305l-173 -746q-73 -309 -247 -448.5t-504 -139.5q-294 0 -445 105.5t-151 319.5q0 44 7 89t15 82l214 922h388l-214 -923q-7 -28 -11.5 -61.5t-4.5 -55.5q0 -94 56.5 -142.5t187.5 -48.5q127 0 205.5 70t112.5 218l219 943h249q154 0 205 90t65 223h221
q-20 -253 -131.5 -369.5t-263.5 -127.5zM1663 0z" />
    <glyph glyph-name="uhorn" unicode="&#x1b0;" horiz-adv-x="1519" 
d="M1378 939l-218 -939h-362l29 124q-54 -35 -105.5 -65.5t-97.5 -48.5q-58 -24 -106 -32.5t-95 -8.5q-148 0 -233.5 71t-85.5 210q0 38 4 70.5t13 71.5l169 731h364l-129 -557q-15 -64 -22.5 -110t-7.5 -78q0 -66 32 -95.5t121 -29.5q44 0 101.5 19t124.5 55l184 796h224
q154 0 205 90t65 223h221q-20 -253 -131.5 -369.5t-263.5 -127.5zM1459 0z" />
    <glyph glyph-name="Aringacute" unicode="&#x1fa;" horiz-adv-x="1590" 
d="M1451 0h-387l-44 304h-517l-195 -304h-401l857 1313q-26 30 -41.5 75t-15.5 90q0 108 64.5 191.5t159.5 122.5l251 256h339l-5 -20l-326 -229q74 -27 121.5 -89t47.5 -150q0 -74 -30 -137t-77 -107zM991 571l-54 436l-283 -436h337zM1174 1543q0 53 -30.5 87t-86.5 34
q-73 0 -119 -55t-46 -119q0 -51 31 -86t88 -35q69 0 116 53t47 121z" />
    <glyph glyph-name="aringacute" unicode="&#x1fb;" horiz-adv-x="1368" 
d="M843 530q-96 -8 -180 -19t-143 -32q-61 -22 -93 -62t-32 -106q0 -58 42.5 -81.5t123.5 -23.5q53 0 113.5 24.5t113.5 62.5zM748 119q-34 -22 -82 -53t-89 -49q-56 -23 -105 -35t-136 -12q-140 0 -228.5 78.5t-88.5 204.5q0 133 63 225.5t187 147.5q116 52 276.5 75
t347.5 34q1 6 4 19.5t3 30.5q0 71 -66 99.5t-197 28.5q-89 0 -196.5 -30t-161.5 -50h-33l53 266q56 15 160 31.5t217 22.5q-62 33 -99.5 91.5t-37.5 136.5q0 115 72.5 200t176.5 119l243 278h334l-5 -20l-348 -256q77 -24 128 -85.5t51 -153.5q0 -113 -68.5 -199.5
t-162.5 -121.5q148 -21 228 -86.5t80 -183.5q0 -20 -3.5 -52t-9.5 -56l-176 -764h-358zM1006 1446q0 53 -30.5 87t-86.5 34q-73 0 -119 -55t-46 -119q0 -51 31 -86t88 -35q69 0 116 53t47 121z" />
    <glyph glyph-name="AEacute" unicode="&#x1fc;" horiz-adv-x="2240" 
d="M1979 0h-1074l93 404h-469l-255 -404h-399l955 1489h1493l-65 -282h-695l-62 -266h645l-66 -283h-645l-87 -376h695zM1064 688l122 527h-144l-333 -527h355zM2032 2029l-438 -373h-256l313 393h381v-20z" />
    <glyph glyph-name="aeacute" unicode="&#x1fd;" horiz-adv-x="2085" 
d="M2030 757q0 -68 -13.5 -133t-35.5 -129h-814v-11.5v-11.5q0 -128 86.5 -188.5t236.5 -60.5q110 0 214.5 40t182.5 89h40l-67 -289q-102 -44 -214 -68.5t-244 -24.5q-162 0 -282.5 44t-195.5 125q-135 -83 -264.5 -126t-293.5 -43q-155 0 -251 73t-96 210t63 226.5
t182 143.5q112 52 267.5 76t351.5 36q1 6 4 19.5t3 30.5q0 71 -62 99.5t-191 28.5q-89 0 -196.5 -30t-161.5 -50h-33l53 266q63 16 195 36t263 20q149 0 243.5 -19t161.5 -66q77 42 172 65t200 23q246 0 371 -101.5t125 -299.5zM1673 770q0 79 -47.5 121t-132.5 42
q-107 0 -179 -59.5t-112 -167.5h465q3 18 4.5 33t1.5 31zM831 306q-9 32 -13.5 68t-4.5 71q0 24 1 42t3 41q-222 -17 -322 -60.5t-100 -136.5q0 -66 44.5 -93t121.5 -27q58 0 127.5 24t142.5 71zM1719 1656l-438 -373h-256l313 393h381v-20z" />
    <glyph glyph-name="Oslashacute" unicode="&#x1fe;" horiz-adv-x="1741" 
d="M1293 1043l-688 -729q39 -39 93 -58.5t120 -19.5q97 0 188.5 49t157.5 136q69 91 108 209.5t39 273.5q0 40 -4 74t-14 65zM530 453l684 726q-41 38 -93 56t-113 18q-94 0 -180 -43.5t-158 -130.5q-69 -82 -112.5 -208t-43.5 -282q0 -42 4 -73.5t12 -62.5zM255 161
q-67 75 -102 176t-35 223q0 194 66 369t189 308q120 129 297 206t386 77q122 0 219.5 -25t171.5 -68l156 165h207l-245 -259q70 -75 106 -174.5t36 -223.5q0 -183 -62 -360t-180 -309q-122 -136 -293.5 -216.5t-403.5 -80.5q-121 0 -219 24.5t-178 72.5l-195 -208h-207z
M1519 2029l-438 -373h-256l313 393h381v-20z" />
    <glyph glyph-name="oslashacute" unicode="&#x1ff;" horiz-adv-x="1404" 
d="M1449 1253l-222 -237q53 -56 80.5 -132.5t27.5 -171.5q0 -158 -53 -296t-149 -237q-100 -103 -232 -158.5t-308 -55.5q-86 0 -162.5 15.5t-133.5 44.5l-175 -187h-180l247 263q-57 58 -86 138.5t-29 177.5q0 150 50 285t148 238q95 101 233.5 159.5t310.5 58.5
q88 0 165 -16t139 -47l149 158h180zM911 871q-26 26 -61.5 37t-77.5 11q-73 0 -133.5 -37.5t-106.5 -106.5q-42 -63 -66.5 -155t-24.5 -196q0 -16 1 -29t2 -22zM872 340q45 67 70.5 155.5t25.5 203.5q0 9 -0.5 19t-1.5 20l-462 -492q25 -21 59 -31.5t77 -10.5q67 0 127.5 35
t104.5 101zM1303 1656l-438 -373h-256l313 393h381v-20z" />
    <glyph glyph-name="uni0218" unicode="&#x218;" horiz-adv-x="1455" 
d="M606 -27q-191 0 -340.5 33t-258.5 82l77 357h42q103 -94 242 -145.5t299 -51.5q164 0 241 44.5t77 127.5q0 31 -12.5 53.5t-48.5 44.5t-98.5 43.5t-161.5 49.5q-109 30 -195.5 65t-147.5 83q-61 49 -92.5 113t-31.5 153q0 224 197.5 357.5t540.5 133.5q165 0 311.5 -27
t248.5 -73l-73 -343h-41q-78 72 -205.5 120.5t-278.5 48.5q-148 0 -229 -43t-81 -119q0 -35 12 -58t49 -45q32 -20 101 -43.5t162 -48.5q250 -67 357 -157t107 -244q0 -129 -58 -227t-160 -159q-107 -65 -243 -95t-308 -30zM799 -115l-215 -308h-216l140 308h291z" />
    <glyph glyph-name="uni0219" unicode="&#x219;" horiz-adv-x="1215" 
d="M473 -31q-144 0 -279 27t-207 63l69 296h33q22 -19 55.5 -42t95.5 -48q53 -23 123 -39.5t151 -16.5q121 0 181.5 28t60.5 80q0 40 -43 61t-178 52q-229 53 -313.5 128t-84.5 187q0 190 170 299.5t460 109.5q126 0 252 -25.5t185 -54.5l-66 -284h-31q-71 55 -171.5 89.5
t-206.5 34.5q-115 0 -176.5 -27.5t-61.5 -84.5q0 -44 53 -67.5t167 -48.5q212 -46 305.5 -116t93.5 -196q0 -188 -172 -296.5t-465 -108.5zM667 -115l-215 -308h-216l140 308h291z" />
    <glyph glyph-name="uni021A" unicode="&#x21a;" horiz-adv-x="1396" 
d="M1504 1201h-464l-277 -1201h-386l277 1201h-464l66 288h1314zM719 -115l-215 -308h-216l140 308h291z" />
    <glyph glyph-name="uni021B" unicode="&#x21b;" horiz-adv-x="933" 
d="M471 -22q-187 0 -267 61.5t-80 182.5q0 32 5 62t13 70l122 532h-148l55 237h148l74 321h361l-74 -321h338l-55 -237h-338l-93 -405q-10 -42 -19 -84.5t-9 -72.5q0 -60 33.5 -83.5t103.5 -23.5q28 0 73.5 10.5t72.5 23.5h30l-56 -241q-61 -15 -128.5 -23.5t-161.5 -8.5z
M546 -115l-215 -308h-216l140 308h291z" />
    <glyph glyph-name="uni0237" unicode="&#x237;" horiz-adv-x="825" 
d="M787 1123l-259 -1119q-45 -194 -178 -310.5t-340 -116.5q-174 0 -290 26l59 258h28l44 -12q47 -12 97 -12q95 0 148.5 49t81.5 170l190 823h-213l57 244h575z" />
    <glyph glyph-name="uni0259" unicode="&#x259;" horiz-adv-x="1360" 
d="M1285 680q0 -305 -198 -506q-201 -204 -533 -204q-506 0 -506 401q0 119 49 262h834v23q0 249 -333 249q-202 0 -407 -129h-40l67 289q212 93 468 93q259 0 416 -107q183 -124 183 -371zM896 422h-485q-6 -36 -6 -64q0 -163 190 -163q218 0 301 227z" />
    <glyph glyph-name="circumflex" unicode="&#x2c6;" horiz-adv-x="1456" 
d="M1288 1283h-255l-134 219l-235 -219h-269l412 393h251z" />
    <glyph glyph-name="caron" unicode="&#x2c7;" horiz-adv-x="1456" 
d="M1379 1676l-412 -393h-251l-230 393h255l134 -219l235 219h269z" />
    <glyph glyph-name="uni02C9" unicode="&#x2c9;" horiz-adv-x="1456" 
d="M1247 1346h-802l48 210h802z" />
    <glyph glyph-name="breve" unicode="&#x2d8;" horiz-adv-x="1456" 
d="M1284 1636q-49 -192 -170 -286.5t-304 -94.5q-146 0 -230 64.5t-84 193.5q0 31 3 57.5t12 65.5h217q-6 -24 -8.5 -44.5t-2.5 -35.5q0 -57 28 -90.5t100 -33.5q87 0 138 57.5t72 146.5h229z" />
    <glyph glyph-name="dotaccent" unicode="&#x2d9;" horiz-adv-x="1456" 
d="M1021 1283h-370l63 273h370z" />
    <glyph glyph-name="ring" unicode="&#x2da;" horiz-adv-x="1456" 
d="M819 1117q-121 0 -205.5 72t-84.5 192q0 139 109 240t255 101q127 0 207.5 -72t80.5 -187q0 -140 -106 -243t-256 -103zM996 1446q0 53 -30.5 87t-86.5 34q-73 0 -119 -55t-46 -119q0 -51 31 -86t88 -35q69 0 116 53t47 121z" />
    <glyph glyph-name="ogonek" unicode="&#x2db;" horiz-adv-x="1456" 
d="M983 -193l-46 -200q-51 -13 -96.5 -18.5t-90.5 -5.5q-150 0 -236 55t-86 160q0 63 13 112t36 100h204q-15 -35 -22.5 -67.5t-7.5 -65.5q0 -49 34.5 -76.5t112.5 -27.5q35 0 90 10.5t86 23.5h9z" />
    <glyph glyph-name="tilde" unicode="&#x2dc;" horiz-adv-x="1456" 
d="M1333 1618q-28 -156 -113.5 -243.5t-216.5 -87.5q-60 0 -107.5 21t-101.5 57q-27 19 -48.5 28t-44.5 9q-47 0 -71 -31t-42 -91h-219q27 155 113.5 243t216.5 88q62 0 108.5 -20.5t100.5 -57.5q29 -20 47.5 -28.5t45.5 -8.5q49 0 73 32t40 90h219z" />
    <glyph glyph-name="hungarumlaut" unicode="&#x2dd;" horiz-adv-x="1456" 
d="M1424 1676l-348 -393h-209l249 393h308zM1000 1676l-348 -393h-209l249 393h308z" />
    <glyph glyph-name="gravecomb" unicode="&#x300;" 
d="M-335 1283h-226l-286 373v20h341z" />
    <glyph glyph-name="acutecomb" unicode="&#x301;" 
d="M-92 1656l-438 -373h-256l313 393h381v-20z" />
    <glyph glyph-name="uni0302" unicode="&#x302;" horiz-adv-x="1456" 
d="M1288 1656h-255l-134 219l-235 -219h-269l412 393h251z" />
    <glyph glyph-name="tildecomb" unicode="&#x303;" 
d="M-67 1618q-28 -156 -113.5 -243.5t-216.5 -87.5q-60 0 -107.5 21t-101.5 57q-27 19 -48.5 28t-44.5 9q-47 0 -71 -31t-42 -91h-219q27 155 113.5 243t216.5 88q62 0 108.5 -20.5t100.5 -57.5q29 -20 47.5 -28.5t45.5 -8.5q49 0 73 32t40 90h219z" />
    <glyph glyph-name="uni0306" unicode="&#x306;" horiz-adv-x="1456" 
d="M1284 2009q-49 -192 -170 -286.5t-304 -94.5q-146 0 -230 64.5t-84 193.5q0 31 3 57.5t12 65.5h217q-6 -24 -8.5 -44.5t-2.5 -35.5q0 -57 28 -90.5t100 -33.5q87 0 138 57.5t72 146.5h229z" />
    <glyph glyph-name="uni0308" unicode="&#x308;" horiz-adv-x="1456" 
d="M1316 1929l-63 -273h-297l63 273h297zM779 1929l-63 -273h-297l63 273h297z" />
    <glyph glyph-name="hookabovecomb" unicode="&#x309;" 
d="M-174 1530q0 -73 -55 -113.5t-117 -60.5l-14 -59h-178l26 112q50 12 86.5 37t36.5 64q0 23 -16.5 37t-49.5 14q-31 0 -49.5 -4.5t-44.5 -13.5h-3l27 115q20 6 59.5 12t82.5 6q120 0 164.5 -41.5t44.5 -104.5z" />
    <glyph glyph-name="uni030B" unicode="&#x30b;" horiz-adv-x="1456" 
d="M1424 2049l-348 -393h-209l249 393h308zM1000 2049l-348 -393h-209l249 393h308z" />
    <glyph glyph-name="uni030C" unicode="&#x30c;" horiz-adv-x="1456" 
d="M1379 2049l-412 -393h-251l-230 393h255l134 -219l235 219h269z" />
    <glyph glyph-name="dotbelowcomb" unicode="&#x323;" 
d="M-730 -423h-370l63 273h370z" />
    <glyph glyph-name="uni0326" unicode="&#x326;" horiz-adv-x="745" 
d="M572 -115l-215 -308h-216l140 308h291z" />
    <glyph glyph-name="uni0333" unicode="&#x333;" 
d="M499 -190h-1309l28 120h1309zM444 -430h-1309l28 120h1309z" />
    <glyph glyph-name="uni0347" unicode="&#x347;" 
d="M466 -190h-1278v120h1278v-120zM466 -430h-1278v120h1278v-120z" />
    <glyph glyph-name="tonos" unicode="&#x384;" horiz-adv-x="1456" 
d="M1181 1676l-169 -393h-238l23 393h384z" />
    <glyph glyph-name="dieresistonos" unicode="&#x385;" horiz-adv-x="1456" 
d="M1154 1676l-163 -393h-197l17 393h343zM1423 1283h-269l63 273h269zM632 1283h-269l63 273h269z" />
    <glyph glyph-name="Alphatonos" unicode="&#x386;" horiz-adv-x="1633" 
d="M1494 0h-387l-34 304h-548l-174 -304h-401l893 1489h444zM1044 571l-60 535l-307 -535h367zM590 1489l-169 -393h-238l23 393h384z" />
    <glyph glyph-name="anoteleia" unicode="&#x387;" horiz-adv-x="824" 
d="M730 1123l-90 -393h-376l90 393h376z" />
    <glyph glyph-name="Epsilontonos" unicode="&#x388;" horiz-adv-x="1736" 
d="M1819 1489l-65 -282h-695l-62 -266h645l-66 -283h-645l-87 -376h695l-64 -282h-1079l344 1489h1079zM579 1489l-169 -393h-238l23 393h384z" />
    <glyph glyph-name="Etatonos" unicode="&#x389;" horiz-adv-x="2050" 
d="M2075 1489l-344 -1489h-386l152 658h-565l-152 -658h-386l344 1489h386l-127 -548h565l127 548h386zM579 1489l-169 -393h-238l23 393h384z" />
    <glyph glyph-name="Iotatonos" unicode="&#x38a;" horiz-adv-x="1444" 
d="M1191 0h-872l61 264h243l222 961h-243l61 264h872l-61 -264h-243l-222 -961h243zM576 1489l-169 -393h-238l23 393h384z" />
    <glyph glyph-name="Omicrontonos" unicode="&#x38c;" horiz-adv-x="1983" 
d="M1949 935q0 -183 -62 -360t-180 -309q-129 -144 -301 -220.5t-396 -76.5q-305 0 -477.5 157.5t-172.5 433.5q0 194 66 369t189 308q120 129 297 206t386 77q306 0 478.5 -158t172.5 -427zM1400 427q68 89 106.5 206.5t38.5 270.5q0 160 -76.5 250.5t-218.5 90.5
q-93 0 -177.5 -42.5t-155.5 -129.5q-69 -83 -111 -206.5t-42 -277.5q0 -171 78.5 -258t217.5 -87q96 0 185 47.5t155 135.5zM568 1489l-169 -393h-238l23 393h384z" />
    <glyph glyph-name="Upsilontonos" unicode="&#x38e;" horiz-adv-x="1924" 
d="M2130 1489l-759 -913l-133 -576h-386l129 558l-342 931h411l191 -583l445 583h444zM576 1489l-169 -393h-238l23 393h384z" />
    <glyph glyph-name="Omegatonos" unicode="&#x38f;" horiz-adv-x="1987" 
d="M1803 0h-716l114 493q168 77 257 192.5t89 284.5q0 134 -82 202t-214 68q-99 0 -176 -37.5t-132 -100.5q-51 -58 -80.5 -138t-29.5 -166q0 -110 45 -181.5t132 -128.5l-113 -488h-716l67 288h474l15 67q-142 73 -219.5 180.5t-77.5 251.5q0 150 57.5 280t169.5 233
q108 100 270.5 160t358.5 60q301 0 480.5 -134.5t179.5 -368.5q0 -229 -141.5 -400t-404.5 -266l-14 -63h474zM570 1489l-169 -393h-238l23 393h384z" />
    <glyph glyph-name="iotadieresistonos" unicode="&#x390;" horiz-adv-x="700" 
d="M662 1123l-260 -1123h-362l260 1123h362zM1019 1556l-63 -273h-229l63 273h229zM348 1556l-63 -273h-229l63 273h229zM733 1676l-149 -393h-157l31 393h275z" />
    <glyph glyph-name="Alpha" unicode="&#x391;" horiz-adv-x="1590" 
d="M1451 0h-387l-34 304h-548l-174 -304h-401l893 1489h444zM1001 571l-60 535l-307 -535h367z" />
    <glyph glyph-name="Beta" unicode="&#x392;" horiz-adv-x="1560" 
d="M1499 1152q0 -136 -74.5 -224.5t-227.5 -133.5l-2 -8q121 -35 183.5 -101t62.5 -186q0 -235 -192.5 -367t-544.5 -132h-645l344 1489h543q269 0 411 -88.5t142 -248.5zM1093 1091q0 66 -52 95.5t-144 29.5h-173l-73 -315h175q126 0 196.5 48.5t70.5 141.5zM1050 489
q0 82 -62 118.5t-195 36.5h-201l-86 -371h194q168 0 259 55t91 161z" />
    <glyph glyph-name="Gamma" unicode="&#x393;" horiz-adv-x="1305" 
d="M1410 1201h-688l-277 -1201h-386l344 1489h1074z" />
    <glyph glyph-name="uni0394" unicode="&#x394;" horiz-adv-x="1650" 
d="M1490 0h-1582l914 1489h442zM1076 279l-115 830l-495 -830h610z" />
    <glyph glyph-name="Epsilon" unicode="&#x395;" horiz-adv-x="1399" 
d="M1482 1489l-65 -282h-695l-62 -266h645l-66 -283h-645l-87 -376h695l-64 -282h-1079l344 1489h1079z" />
    <glyph glyph-name="Zeta" unicode="&#x396;" horiz-adv-x="1417" 
d="M1209 0h-1251l64 274l984 932h-733l65 283h1175l-65 -279l-981 -927h808z" />
    <glyph glyph-name="Eta" unicode="&#x397;" horiz-adv-x="1715" 
d="M1740 1489l-344 -1489h-386l152 658h-565l-152 -658h-386l344 1489h386l-127 -548h565l127 548h386z" />
    <glyph glyph-name="Theta" unicode="&#x398;" horiz-adv-x="1741" 
d="M1707 935q0 -183 -62 -360t-180 -309q-129 -144 -301 -220.5t-396 -76.5q-305 0 -477.5 157.5t-172.5 433.5q0 194 66 369t189 308q120 129 297 206t386 77q306 0 478.5 -158t172.5 -427zM1158 427q68 89 106.5 206.5t38.5 270.5q0 160 -76.5 250.5t-218.5 90.5
q-93 0 -177.5 -42.5t-155.5 -129.5q-69 -83 -111 -206.5t-42 -277.5q0 -171 78.5 -258t217.5 -87q96 0 185 47.5t155 135.5zM1108 609h-461l71 312h461z" />
    <glyph glyph-name="Iota" unicode="&#x399;" horiz-adv-x="1118" 
d="M865 0h-872l61 264h243l222 961h-243l61 264h872l-61 -264h-243l-222 -961h243z" />
    <glyph glyph-name="Kappa" unicode="&#x39a;" horiz-adv-x="1579" 
d="M1466 0h-423l-335 603l-155 -135l-108 -468h-386l343 1489h386l-151 -656l672 656h456l-752 -693z" />
    <glyph glyph-name="Lambda" unicode="&#x39b;" horiz-adv-x="1590" 
d="M1451 0h-388l-127 1080l-628 -1080h-401l905 1489h424z" />
    <glyph glyph-name="Mu" unicode="&#x39c;" horiz-adv-x="1941" 
d="M1622 0h-384l225 974l-409 -624h-265l-132 665l-234 -1015h-364l344 1489h441l163 -747l506 747h453z" />
    <glyph glyph-name="Nu" unicode="&#x39d;" horiz-adv-x="1734" 
d="M1415 0h-327l-437 1031l-238 -1031h-354l344 1489h430l374 -862l198 862h354z" />
    <glyph glyph-name="Xi" unicode="&#x39e;" horiz-adv-x="1464" 
d="M1471 1185h-1190l69 304h1190zM1290 620h-1090l69 304h1090zM1197 0h-1190l70 304h1190z" />
    <glyph glyph-name="Omicron" unicode="&#x39f;" horiz-adv-x="1741" 
d="M1707 935q0 -183 -62 -360t-180 -309q-129 -144 -301 -220.5t-396 -76.5q-305 0 -477.5 157.5t-172.5 433.5q0 194 66 369t189 308q120 129 297 206t386 77q306 0 478.5 -158t172.5 -427zM1158 427q68 89 106.5 206.5t38.5 270.5q0 160 -76.5 250.5t-218.5 90.5
q-93 0 -177.5 -42.5t-155.5 -129.5q-69 -83 -111 -206.5t-42 -277.5q0 -171 78.5 -258t217.5 -87q96 0 185 47.5t155 135.5z" />
    <glyph glyph-name="Pi" unicode="&#x3a0;" horiz-adv-x="1715" 
d="M1740 1489l-344 -1489h-386l278 1206h-565l-278 -1206h-386l344 1489h1337z" />
    <glyph glyph-name="Rho" unicode="&#x3a1;" horiz-adv-x="1501" 
d="M1540 1077q0 -266 -220.5 -429t-616.5 -163h-146l-112 -485h-386l344 1489h535q146 0 254.5 -20t187.5 -69q78 -49 119 -127.5t41 -195.5zM1130 1040q0 87 -63 129t-187 42h-155l-103 -446h138q175 0 272.5 71.5t97.5 203.5z" />
    <glyph glyph-name="Sigma" unicode="&#x3a3;" horiz-adv-x="1400" 
d="M1194 0h-1221l65 282l648 491l-416 439l64 277h1170l-65 -282h-699l383 -398l-18 -80l-604 -447h758z" />
    <glyph glyph-name="Tau" unicode="&#x3a4;" horiz-adv-x="1396" 
d="M1504 1201h-464l-277 -1201h-386l277 1201h-464l66 288h1314z" />
    <glyph glyph-name="Upsilon" unicode="&#x3a5;" horiz-adv-x="1509" 
d="M1715 1489l-759 -913l-133 -576h-386l129 558l-342 931h411l191 -583l445 583h444z" />
    <glyph glyph-name="Phi" unicode="&#x3a6;" horiz-adv-x="1950" 
d="M1916 866q0 -162 -60 -290.5t-170 -218.5q-112 -91 -266 -143.5t-350 -63.5l-38 -164h-382l39 166q-131 12 -236 49t-180 99q-73 60 -113 146t-40 191q0 159 59 287.5t171 221.5q112 92 270 144t346 63l35 153h382l-36 -155q263 -24 416 -146.5t153 -338.5zM910 1109
q-192 -23 -291.5 -142t-99.5 -304q0 -105 52 -175.5t173 -92.5zM1517 840q0 103 -51 173t-174 95l-166 -714q190 23 290.5 140.5t100.5 305.5z" />
    <glyph glyph-name="Chi" unicode="&#x3a7;" horiz-adv-x="1564" 
d="M610 768l-361 721h418l219 -469l435 469h425l-701 -742l365 -747h-419l-223 495l-450 -495h-424z" />
    <glyph glyph-name="Psi" unicode="&#x3a8;" horiz-adv-x="1999" 
d="M1946 927q-35 -151 -102.5 -259t-170.5 -179q-100 -70 -232.5 -109.5t-305.5 -52.5l-75 -327h-381l75 327q-271 25 -411 130.5t-140 309.5q0 49 6.5 95t17.5 93l124 534h380l-124 -534q-7 -29 -12.5 -68.5t-5.5 -68.5q0 -110 58 -167.5t164 -74.5l212 913h381l-212 -913
q74 13 134 36t106 65q47 42 80.5 100.5t53.5 149.5l130 562h380z" />
    <glyph glyph-name="uni03A9" unicode="&#x3a9;" horiz-adv-x="1728" 
d="M1544 0h-716l114 493q168 77 257 192.5t89 284.5q0 134 -82 202t-214 68q-99 0 -176 -37.5t-132 -100.5q-51 -58 -80.5 -138t-29.5 -166q0 -110 45 -181.5t132 -128.5l-113 -488h-716l67 288h474l15 67q-142 73 -219.5 180.5t-77.5 251.5q0 150 57.5 280t169.5 233
q108 100 270.5 160t358.5 60q301 0 480.5 -134.5t179.5 -368.5q0 -229 -141.5 -400t-404.5 -266l-14 -63h474z" />
    <glyph glyph-name="Iotadieresis" unicode="&#x3aa;" horiz-adv-x="1118" 
d="M865 0h-872l61 264h243l222 961h-243l61 264h872l-61 -264h-243l-222 -961h243zM1284 1929l-63 -273h-297l63 273h297zM747 1929l-63 -273h-297l63 273h297z" />
    <glyph glyph-name="Upsilondieresis" unicode="&#x3ab;" horiz-adv-x="1509" 
d="M1715 1489l-759 -913l-133 -576h-386l129 558l-342 931h411l191 -583l445 583h444zM1439 1929l-63 -273h-297l63 273h297zM902 1929l-63 -273h-297l63 273h297z" />
    <glyph glyph-name="alphatonos" unicode="&#x3ac;" horiz-adv-x="1432" 
d="M1394 1123l-260 -1123h-362l27 117q-52 -33 -91.5 -59.5t-87.5 -48.5q-45 -20 -88.5 -30t-104.5 -10q-163 0 -260.5 106t-97.5 301q0 160 51.5 300.5t141.5 248.5q88 105 208 167t251 62q92 0 160 -18.5t140 -57.5l12 45h361zM971 861q-29 14 -76 25.5t-83 11.5
q-86 0 -155 -38t-117 -104q-43 -59 -68 -150.5t-25 -176.5q0 -101 47 -147t143 -46q49 0 103.5 22t103.5 52zM1131 1676l-169 -393h-238l23 393h384z" />
    <glyph glyph-name="epsilontonos" unicode="&#x3ad;" horiz-adv-x="1198" 
d="M1030 56q-135 -48 -253.5 -67.5t-247.5 -19.5q-92 0 -182.5 15t-162.5 53q-67 36 -105 91t-38 132q0 124 83 211.5t208 122.5l1 7q-73 24 -116 76t-43 125q0 100 53 167.5t137 108.5q86 42 197 59.5t212 17.5q137 0 251.5 -23t177.5 -42l-63 -262h-39q-58 32 -140.5 56.5
t-175.5 24.5q-46 0 -85 -6t-74 -21q-33 -14 -54.5 -40.5t-21.5 -63.5q0 -33 20 -52t53 -27q35 -8 71 -9t92 -1h139l-51 -221h-185q-68 0 -110.5 -4.5t-84.5 -22.5q-37 -15 -56.5 -43t-19.5 -69q0 -36 24.5 -59t61.5 -34q37 -12 79.5 -16.5t92.5 -4.5q101 0 204.5 34.5
t171.5 73.5h39zM1031 1676l-169 -393h-238l23 393h384z" />
    <glyph glyph-name="etatonos" unicode="&#x3ae;" horiz-adv-x="1459" 
d="M1355 869q0 -30 -4 -65t-13 -73l-263 -1143h-364l223 969q14 62 22 106t8 82q0 65 -33 95t-121 30q-43 0 -99 -18.5t-126 -55.5l-183 -796h-362l259 1123h362l-29 -124q111 73 202.5 114t201.5 41q151 0 235 -73t84 -212zM1143 1676l-169 -393h-238l23 393h384z" />
    <glyph glyph-name="iotatonos" unicode="&#x3af;" horiz-adv-x="700" 
d="M662 1123l-260 -1123h-362l260 1123h362zM801 1676l-169 -393h-238l23 393h384z" />
    <glyph glyph-name="upsilondieresistonos" unicode="&#x3b0;" horiz-adv-x="1446" 
d="M1257 421q-52 -223 -216.5 -339.5t-445.5 -116.5q-228 0 -353.5 92t-125.5 254q0 31 4 62.5t12 68.5l157 681h364l-135 -585q-9 -38 -17.5 -90t-8.5 -78q0 -78 36.5 -119t124.5 -41q65 0 109 19.5t73 61.5q27 40 45.5 96t36.5 138l138 598h364zM1144 1676l-163 -393h-197
l17 393h343zM1413 1283h-269l63 273h269zM622 1283h-269l63 273h269z" />
    <glyph glyph-name="alpha" unicode="&#x3b1;" horiz-adv-x="1432" 
d="M1394 1123l-260 -1123h-362l27 117q-52 -33 -91.5 -59.5t-87.5 -48.5q-45 -20 -88.5 -30t-104.5 -10q-163 0 -260.5 106t-97.5 301q0 160 51.5 300.5t141.5 248.5q88 105 208 167t251 62q92 0 160 -18.5t140 -57.5l12 45h361zM971 861q-29 14 -76 25.5t-83 11.5
q-86 0 -155 -38t-117 -104q-43 -59 -68 -150.5t-25 -176.5q0 -101 47 -147t143 -46q49 0 103.5 22t103.5 52z" />
    <glyph glyph-name="beta" unicode="&#x3b2;" horiz-adv-x="1467" 
d="M752 -21q-94 0 -185 21.5t-153 58.5l-108 -471h-362l341 1480q52 233 229 364t476 131q208 0 334 -91t126 -230q0 -140 -93.5 -252.5t-249.5 -156.5l-4 -17q123 -24 194 -100.5t71 -187.5q0 -222 -178 -385.5t-438 -163.5zM988 528q0 98 -75 134.5t-204 36.5h-48l52 227
q185 0 272 57.5t87 196.5q0 63 -48 103t-115 40q-58 0 -102.5 -21.5t-77.5 -58.5q-28 -33 -48.5 -81t-33.5 -100l-186 -804q33 -14 90.5 -22.5t99.5 -8.5q142 0 239.5 75t97.5 226z" />
    <glyph glyph-name="gamma" unicode="&#x3b3;" horiz-adv-x="1333" 
d="M1423 1123l-720 -1093l-105 -442h-362l105 442l-199 1093h368l113 -692l420 692h380z" />
    <glyph glyph-name="delta" unicode="&#x3b4;" horiz-adv-x="1406" 
d="M1335 686q0 -320 -208 -520.5t-529 -200.5q-246 0 -385 126t-139 328q0 152 51 275t154 215q91 83 208 130t231 67q-86 77 -175 129t-168 96l53 225h1003l-57 -244h-444l-1 -10q88 -65 156 -126.5t119 -126.5q58 -76 94.5 -164.5t36.5 -198.5zM959 667q0 72 -20.5 145.5
t-72.5 128.5q-57 -8 -129.5 -37.5t-136.5 -85.5q-63 -55 -106.5 -147t-43.5 -220q0 -131 49 -186t139 -55q142 0 231.5 131t89.5 326z" />
    <glyph glyph-name="epsilon" unicode="&#x3b5;" horiz-adv-x="1198" 
d="M1030 56q-135 -48 -253.5 -67.5t-247.5 -19.5q-92 0 -182.5 15t-162.5 53q-67 36 -105 91t-38 132q0 124 83 211.5t208 122.5l1 7q-73 24 -116 76t-43 125q0 100 53 167.5t137 108.5q86 42 197 59.5t212 17.5q137 0 251.5 -23t177.5 -42l-63 -262h-39q-58 32 -140.5 56.5
t-175.5 24.5q-46 0 -85 -6t-74 -21q-33 -14 -54.5 -40.5t-21.5 -63.5q0 -33 20 -52t53 -27q35 -8 71 -9t92 -1h139l-51 -221h-185q-68 0 -110.5 -4.5t-84.5 -22.5q-37 -15 -56.5 -43t-19.5 -69q0 -36 24.5 -59t61.5 -34q37 -12 79.5 -16.5t92.5 -4.5q101 0 204.5 34.5
t171.5 73.5h39z" />
    <glyph glyph-name="zeta" unicode="&#x3b6;" horiz-adv-x="1125" 
d="M596 2h-148q-192 0 -292.5 89t-100.5 249q0 146 60.5 279.5t167.5 258.5q103 121 238 228.5t265 197.5l2 8h-464l58 244h944l-54 -221q-140 -77 -286 -180.5t-264 -218.5t-193.5 -241.5t-75.5 -249.5q0 -43 15 -86t63 -71q33 -19 85.5 -25t122.5 -6h68q107 0 172.5 -67
t65.5 -174q0 -105 -63 -217t-171 -211h-307l4 24q96 72 149.5 139.5t53.5 136.5q0 50 -30.5 82t-84.5 32z" />
    <glyph glyph-name="eta" unicode="&#x3b7;" horiz-adv-x="1459" 
d="M1355 869q0 -30 -4 -65t-13 -73l-263 -1143h-364l223 969q14 62 22 106t8 82q0 65 -33 95t-121 30q-43 0 -99 -18.5t-126 -55.5l-183 -796h-362l259 1123h362l-29 -124q111 73 202.5 114t201.5 41q151 0 235 -73t84 -212z" />
    <glyph glyph-name="theta" unicode="&#x3b8;" horiz-adv-x="1434" 
d="M1295 1404q55 -69 77.5 -160t22.5 -189q0 -201 -44.5 -384.5t-110.5 -309.5q-44 -82 -102 -154t-139 -127q-83 -56 -173 -85t-218 -29q-143 0 -238.5 41.5t-152.5 112.5q-56 72 -78.5 161.5t-22.5 188.5q0 170 37.5 356.5t112.5 331.5q43 84 102.5 156.5t138.5 127.5
q77 55 177.5 86t219.5 31q144 0 238.5 -41.5t152.5 -113.5zM1045 1064q0 131 -44 193t-142 62q-59 0 -109 -25.5t-90 -80.5q-44 -61 -75.5 -151t-49.5 -164h496q7 39 10.5 81.5t3.5 84.5zM983 656h-496q-7 -37 -12.5 -92.5t-5.5 -102.5q0 -131 41.5 -193t142.5 -62
q59 0 112.5 28t91.5 86q42 64 75 157t51 179z" />
    <glyph glyph-name="iota" unicode="&#x3b9;" horiz-adv-x="700" 
d="M662 1123l-260 -1123h-362l260 1123h362z" />
    <glyph glyph-name="kappa" unicode="&#x3ba;" horiz-adv-x="1374" 
d="M1245 0h-379l-221 496l-159 -142l-83 -354h-362l259 1123h362l-114 -496l340 336q73 74 157.5 118t189.5 44q31 0 82 -1t73 -1l-71 -310h-17q-10 2 -29.5 4t-43.5 2q-56 0 -101 -25.5t-79 -60.5l-104 -100z" />
    <glyph glyph-name="lambda" unicode="&#x3bb;" horiz-adv-x="1333" 
d="M577 1556h377l250 -1556h-366l-99 725l-445 -725h-380l737 1136z" />
    <glyph glyph-name="uni03BC" unicode="&#x3bc;" horiz-adv-x="1473" 
d="M1174 0h-318v80h-7q-61 -44 -112 -69.5t-121 -25.5q-64 0 -111.5 22t-86.5 65l-112 -484h-362l355 1535h362l-184 -795q40 -38 88 -52t102 -14q50 0 109.5 15.5t111.5 50.5l184 795h362z" />
    <glyph glyph-name="nu" unicode="&#x3bd;" horiz-adv-x="1329" 
d="M1419 1123l-693 -1123h-410l-170 1123h371l82 -773l433 773h387z" />
    <glyph glyph-name="xi" unicode="&#x3be;" horiz-adv-x="1189" 
d="M1085 16q0 -102 -62 -214.5t-172 -213.5h-307l4 24q101 76 152 142.5t51 133.5q0 50 -30.5 82t-84.5 32h-153q-196 0 -315 93t-119 247q0 90 30.5 166t89.5 138q57 59 135.5 100t176.5 64l3 11q-99 27 -159.5 86.5t-60.5 139.5q0 49 17.5 85t50.5 70q29 30 71.5 55.5
t95.5 49.5l2 9h-234l57 240h992l-58 -244h-271q-74 0 -132 -12.5t-108 -41.5q-47 -28 -73.5 -71.5t-26.5 -101.5q0 -46 20.5 -78.5t56.5 -52.5q31 -18 77 -27.5t101 -9.5h241l-58 -252h-329q-147 0 -232 -65t-85 -178q0 -54 26.5 -86.5t68.5 -48.5q44 -17 97.5 -23.5
t128.5 -6.5h87q60 0 104.5 -19.5t75.5 -54.5q30 -34 44 -76t14 -91z" />
    <glyph glyph-name="omicron" unicode="&#x3bf;" horiz-adv-x="1404" 
d="M1335 712q0 -158 -53 -296t-149 -237q-100 -103 -232 -158.5t-308 -55.5q-251 0 -385 120t-134 332q0 150 50 285t148 238q95 101 233.5 159.5t310.5 58.5q252 0 385.5 -118.5t133.5 -327.5zM867 344q46 70 69.5 153t23.5 202q0 103 -45 158.5t-143 55.5
q-76 0 -133.5 -37t-101.5 -105q-41 -63 -64.5 -156t-23.5 -191q0 -115 51 -164.5t140 -49.5q65 0 125 35.5t102 98.5z" />
    <glyph glyph-name="pi" unicode="&#x3c0;" horiz-adv-x="1474" 
d="M1176 0h-362l202 879h-412l-202 -879h-362l259 1123h1136z" />
    <glyph glyph-name="rho" unicode="&#x3c1;" horiz-adv-x="1432" 
d="M1367 718q0 -131 -46 -265.5t-129 -237.5q-103 -126 -223.5 -181.5t-246.5 -55.5q-98 0 -179 24.5t-129 54.5l-108 -469h-362l245 1061q53 236 224 372.5t449 136.5q136 0 233 -35.5t157 -95.5q59 -59 87 -139t28 -170zM987 706q0 40 -9 77.5t-31 66.5q-21 29 -56.5 46
t-85.5 17q-85 0 -151 -56.5t-101 -201.5l-93 -402q39 -15 88 -20t82 -5q110 0 181.5 50t111.5 127q38 74 51 155.5t13 145.5z" />
    <glyph glyph-name="sigma1" unicode="&#x3c2;" horiz-adv-x="1151" 
d="M1035 16q0 -107 -65 -219.5t-169 -208.5h-307l4 24q103 79 153 144t50 132q0 51 -31 82.5t-83 31.5h-55q-98 0 -182.5 27.5t-146.5 82.5q-61 55 -95 136.5t-34 189.5q0 316 212.5 516t546.5 200q118 0 223 -26t171 -61l-69 -297h-47q-59 66 -132.5 98.5t-165.5 32.5
q-81 0 -149 -29.5t-117 -84.5q-45 -51 -70.5 -124t-25.5 -159q0 -119 71.5 -183t225.5 -64h49q108 0 173 -67t65 -174z" />
    <glyph glyph-name="sigma" unicode="&#x3c3;" horiz-adv-x="1486" 
d="M1333 692q0 -145 -52 -279.5t-148 -233.5q-100 -103 -232 -158.5t-308 -55.5q-251 0 -385 120t-134 332q0 150 50 285t148 238q95 101 233.5 159.5t310.5 58.5q74 0 139 -12t119 -23h540l-56 -244h-269q19 -40 31.5 -77t12.5 -110zM867 344q46 70 69.5 153t23.5 202
q0 103 -45 158.5t-143 55.5q-76 0 -133.5 -37t-101.5 -105q-41 -63 -64.5 -156t-23.5 -191q0 -115 51 -164.5t140 -49.5q65 0 125 35.5t102 98.5z" />
    <glyph glyph-name="tau" unicode="&#x3c4;" horiz-adv-x="1096" 
d="M1160 879h-358l-203 -879h-362l203 879h-358l56 244h1078z" />
    <glyph glyph-name="upsilon" unicode="&#x3c5;" horiz-adv-x="1446" 
d="M1257 421q-52 -223 -216.5 -339.5t-445.5 -116.5q-228 0 -353.5 92t-125.5 254q0 31 4 62.5t12 68.5l157 681h364l-135 -585q-9 -38 -17.5 -90t-8.5 -78q0 -78 36.5 -119t124.5 -41q65 0 109 19.5t73 61.5q27 40 45.5 96t36.5 138l138 598h364z" />
    <glyph glyph-name="phi" unicode="&#x3c6;" horiz-adv-x="1873" 
d="M1810 715q0 -152 -59.5 -283.5t-167.5 -226.5q-110 -97 -263.5 -155.5t-341.5 -68.5l-90 -393h-360l91 396q-246 22 -398 150.5t-152 327.5q0 178 97 343t274 318h362l-8 -33q-104 -79 -170 -159t-107 -160q-36 -73 -51 -145t-15 -132q0 -128 61.5 -193t160.5 -82
l215 929q26 1 89 4t172 3q326 0 493.5 -114t167.5 -326zM1339 377q48 64 71 141.5t23 163.5q0 120 -56.5 180.5t-179.5 65.5l-165 -714q104 11 182 55t125 108z" />
    <glyph glyph-name="chi" unicode="&#x3c7;" horiz-adv-x="1301" 
d="M370 365l-237 758h367l141 -503l378 503h379l-586 -751l247 -784h-367l-150 529l-398 -529h-380z" />
    <glyph glyph-name="psi" unicode="&#x3c8;" horiz-adv-x="1928" 
d="M1753 471q-29 -124 -96.5 -213t-168.5 -147q-95 -56 -217 -87.5t-258 -42.5l-91 -393h-364l91 393q-110 10 -204.5 36t-167.5 75q-71 48 -110 117.5t-39 162.5q0 28 4 66t11 70l142 615h364l-135 -586q-6 -25 -10.5 -62.5t-4.5 -60.5q0 -54 17 -90.5t41 -56.5
q27 -23 64 -35.5t81 -16.5l210 908h364l-210 -908q53 6 108 21t94 44q44 33 77 84.5t52 140.5l142 618h364z" />
    <glyph glyph-name="omega" unicode="&#x3c9;" horiz-adv-x="1831" 
d="M1754 657q0 -111 -34 -235.5t-105 -222.5q-84 -117 -198 -174.5t-257 -57.5q-103 0 -185 40t-134 121h-12q-31 -30 -61 -55.5t-81 -51.5q-53 -27 -99 -40.5t-124 -13.5q-185 0 -289.5 109.5t-104.5 294.5q0 104 26 203.5t79 196.5q52 95 123.5 180t165.5 172h391l-5 -23
q-196 -143 -306 -331t-110 -374q0 -40 6.5 -69.5t22.5 -57.5q15 -27 37 -42t55 -15t66 9t48 18l139 600h360l-139 -600q14 -11 39.5 -19t71.5 -8q64 0 113 46t78 109t44.5 137t15.5 137q0 136 -48 251t-139 209l5 23h381q77 -106 120.5 -222.5t43.5 -243.5z" />
    <glyph glyph-name="iotadieresis" unicode="&#x3ca;" horiz-adv-x="700" 
d="M662 1123l-260 -1123h-362l260 1123h362zM945 1556l-63 -273h-277l63 273h277zM486 1556l-63 -273h-277l63 273h277z" />
    <glyph glyph-name="upsilondieresis" unicode="&#x3cb;" horiz-adv-x="1446" 
d="M1257 421q-52 -223 -216.5 -339.5t-445.5 -116.5q-228 0 -353.5 92t-125.5 254q0 31 4 62.5t12 68.5l157 681h364l-135 -585q-9 -38 -17.5 -90t-8.5 -78q0 -78 36.5 -119t124.5 -41q65 0 109 19.5t73 61.5q27 40 45.5 96t36.5 138l138 598h364zM1355 1556l-63 -273h-297
l63 273h297zM818 1556l-63 -273h-297l63 273h297z" />
    <glyph glyph-name="omicrontonos" unicode="&#x3cc;" horiz-adv-x="1404" 
d="M1335 712q0 -158 -53 -296t-149 -237q-100 -103 -232 -158.5t-308 -55.5q-251 0 -385 120t-134 332q0 150 50 285t148 238q95 101 233.5 159.5t310.5 58.5q252 0 385.5 -118.5t133.5 -327.5zM867 344q46 70 69.5 153t23.5 202q0 103 -45 158.5t-143 55.5
q-76 0 -133.5 -37t-101.5 -105q-41 -63 -64.5 -156t-23.5 -191q0 -115 51 -164.5t140 -49.5q65 0 125 35.5t102 98.5zM1124 1676l-169 -393h-238l23 393h384z" />
    <glyph glyph-name="upsilontonos" unicode="&#x3cd;" horiz-adv-x="1446" 
d="M1257 421q-52 -223 -216.5 -339.5t-445.5 -116.5q-228 0 -353.5 92t-125.5 254q0 31 4 62.5t12 68.5l157 681h364l-135 -585q-9 -38 -17.5 -90t-8.5 -78q0 -78 36.5 -119t124.5 -41q65 0 109 19.5t73 61.5q27 40 45.5 96t36.5 138l138 598h364zM1163 1676l-169 -393h-238
l23 393h384z" />
    <glyph glyph-name="omegatonos" unicode="&#x3ce;" horiz-adv-x="1831" 
d="M1754 657q0 -111 -34 -235.5t-105 -222.5q-84 -117 -198 -174.5t-257 -57.5q-103 0 -185 40t-134 121h-12q-31 -30 -61 -55.5t-81 -51.5q-53 -27 -99 -40.5t-124 -13.5q-185 0 -289.5 109.5t-104.5 294.5q0 104 26 203.5t79 196.5q52 95 123.5 180t165.5 172h391l-5 -23
q-196 -143 -306 -331t-110 -374q0 -40 6.5 -69.5t22.5 -57.5q15 -27 37 -42t55 -15t66 9t48 18l139 600h360l-139 -600q14 -11 39.5 -19t71.5 -8q64 0 113 46t78 109t44.5 137t15.5 137q0 136 -48 251t-139 209l5 23h381q77 -106 120.5 -222.5t43.5 -243.5zM1338 1676
l-169 -393h-238l23 393h384z" />
    <glyph glyph-name="omega1" unicode="&#x3d6;" horiz-adv-x="1452" 
d="M1481 879h-156l-203 -879h-362l203 879h-330l-203 -879h-362l203 879h-156l57 244h1366z" />
    <glyph glyph-name="uni0401" unicode="&#x401;" horiz-adv-x="1399" 
d="M1482 1489l-65 -282h-695l-62 -266h645l-66 -283h-645l-87 -376h695l-64 -282h-1079l344 1489h1079zM1430 1929l-63 -273h-297l63 273h297zM893 1929l-63 -273h-297l63 273h297z" />
    <glyph glyph-name="uni0402" unicode="&#x402;" horiz-adv-x="1865" 
d="M1761 572q0 -137 -67.5 -258.5t-174.5 -195.5q-98 -67 -203 -92.5t-245 -25.5h-117l65 282h42q82 0 139 19.5t90 52.5q33 32 48 73.5t15 88.5q0 31 -9.5 56t-31.5 45q-23 20 -66.5 32.5t-107.5 12.5h-257l-152 -662h-385l278 1201h-433l66 288h1282l-66 -288h-465
l-62 -267h323q242 0 368 -92t126 -270z" />
    <glyph glyph-name="uni0403" unicode="&#x403;" horiz-adv-x="1305" 
d="M1410 1201h-688l-277 -1201h-386l344 1489h1074zM1469 2029l-438 -373h-256l313 393h381v-20z" />
    <glyph glyph-name="uni0404" unicode="&#x404;" horiz-adv-x="1519" 
d="M497 639q-2 -18 -2.5 -33.5t-0.5 -25.5q0 -163 97 -252.5t268 -89.5q129 0 252.5 46.5t251.5 138.5h39l-76 -337q-168 -68 -295.5 -91.5t-254.5 -23.5q-312 0 -485 154.5t-173 428.5q0 207 69.5 384t198.5 309q123 126 299 198.5t375 72.5q178 0 314.5 -35.5t220.5 -78.5
l-79 -336h-41q-110 102 -212.5 142.5t-211.5 40.5q-154 0 -288.5 -87.5t-197.5 -247.5h659l-62 -277h-665z" />
    <glyph glyph-name="uni0405" unicode="&#x405;" horiz-adv-x="1455" 
d="M606 -27q-191 0 -340.5 33t-258.5 82l77 357h42q103 -94 242 -145.5t299 -51.5q164 0 241 44.5t77 127.5q0 31 -12.5 53.5t-48.5 44.5t-98.5 43.5t-161.5 49.5q-109 30 -195.5 65t-147.5 83q-61 49 -92.5 113t-31.5 153q0 224 197.5 357.5t540.5 133.5q165 0 311.5 -27
t248.5 -73l-73 -343h-41q-78 72 -205.5 120.5t-278.5 48.5q-148 0 -229 -43t-81 -119q0 -35 12 -58t49 -45q32 -20 101 -43.5t162 -48.5q250 -67 357 -157t107 -244q0 -129 -58 -227t-160 -159q-107 -65 -243 -95t-308 -30z" />
    <glyph glyph-name="uni0406" unicode="&#x406;" horiz-adv-x="1118" 
d="M865 0h-872l61 264h243l222 961h-243l61 264h872l-61 -264h-243l-222 -961h243z" />
    <glyph glyph-name="uni0407" unicode="&#x407;" horiz-adv-x="1118" 
d="M865 0h-872l61 264h243l222 961h-243l61 264h872l-61 -264h-243l-222 -961h243zM1284 1929l-63 -273h-297l63 273h297zM747 1929l-63 -273h-297l63 273h297z" />
    <glyph glyph-name="uni0408" unicode="&#x408;" horiz-adv-x="1137" 
d="M950 491q-61 -262 -229 -388t-460 -126q-107 0 -193 7.5t-154 21.5l71 308h36q43 -17 91.5 -33t129.5 -16q153 0 229 73t124 284l137 593h-340l63 274h726z" />
    <glyph glyph-name="uni0409" unicode="&#x409;" horiz-adv-x="2503" 
d="M1998 516q0 31 -9.5 56t-31.5 45q-23 20 -66.5 32.5t-107.5 12.5h-235l-90 -389h246q80 0 137.5 21t90.5 55q34 34 50 76.5t16 90.5zM2406 572q0 -137 -67.5 -258.5t-174.5 -195.5q-98 -67 -203 -92.5t-245 -25.5h-705l279 1206h-409q-27 -97 -43 -158t-41 -150
q-59 -215 -110 -349t-100 -221q-50 -89 -98 -143t-101 -92q-72 -53 -149 -78t-160 -25q-50 0 -105 4t-70 6l77 333h14q10 -1 20.5 -3t25.5 -2q27 0 71.5 8t70.5 29q94 75 148.5 211.5t126.5 404.5q26 98 57.5 228.5t66.5 279.5h1158l-129 -555h301q242 0 368 -92t126 -270z
" />
    <glyph glyph-name="uni040A" unicode="&#x40a;" horiz-adv-x="2487" 
d="M1982 516q0 31 -9.5 56t-31.5 45q-23 20 -66.5 32.5t-107.5 12.5h-235l-90 -389h246q80 0 137.5 21t90.5 55q34 34 50 76.5t16 90.5zM2390 572q0 -137 -67.5 -258.5t-174.5 -195.5q-98 -67 -203 -92.5t-245 -25.5h-705l152 659h-550l-152 -659h-386l344 1489h386
l-129 -558h550l129 558h385l-129 -555h301q242 0 368 -92t126 -270z" />
    <glyph glyph-name="uni040B" unicode="&#x40b;" horiz-adv-x="1917" 
d="M750 0h-386l277 1201h-451l66 288h1300l-66 -288h-463l-70 -303q93 17 206 33t211 16q190 0 300 -83.5t110 -237.5q0 -21 -3.5 -62.5t-15.5 -92.5l-108 -471h-388l72 313q10 45 19 94t9 82q0 98 -64.5 136t-195.5 38q-56 0 -112 -6t-98 -12z" />
    <glyph glyph-name="uni040C" unicode="&#x40c;" horiz-adv-x="1579" 
d="M1466 0h-423l-336 605h-122l-140 -605h-386l343 1489h386l-141 -610q90 4 141 36t157 163q26 33 62.5 80t67.5 87q61 76 118 126.5t110 76.5q52 25 110 34.5t143 9.5q51 0 91 -1.5t59 -1.5l-73 -317h-101q-46 0 -73 -9.5t-62 -35.5q-29 -22 -57 -54.5t-77 -96.5
q-80 -105 -133 -149t-98 -64zM1527 2029l-438 -373h-256l313 393h381v-20z" />
    <glyph glyph-name="uni040D" unicode="&#x40d;" horiz-adv-x="1738" 
d="M1419 0h-376l233 1001l-851 -1001h-366l344 1489h376l-211 -907l784 907h411zM1265 1656h-226l-286 373v20h341z" />
    <glyph glyph-name="uni040E" unicode="&#x40e;" horiz-adv-x="1509" 
d="M1714 1489l-817 -1191q-73 -105 -147 -167t-147 -93q-72 -31 -137.5 -39.5t-128.5 -8.5q-69 0 -165.5 3.5t-125.5 6.5l73 319h23q20 -6 79 -12.5t96 -6.5q94 0 162 24t89 61l-345 1104h395l212 -733l475 733h409zM1559 1980q-37 -188 -201 -293t-415 -105
q-223 0 -343.5 83.5t-120.5 237.5q0 22 2.5 40.5t5.5 36.5h336q-4 -20 -5.5 -38.5t-1.5 -32.5q0 -71 37 -104.5t128 -33.5q110 0 165 51.5t77 157.5h336z" />
    <glyph glyph-name="uni040F" unicode="&#x40f;" horiz-adv-x="1715" 
d="M550 0h-491l344 1489h385l-278 -1206h565l279 1206h385l-343 -1489h-491l-81 -352h-355z" />
    <glyph glyph-name="uni0410" unicode="&#x410;" horiz-adv-x="1590" 
d="M1451 0h-387l-34 304h-548l-174 -304h-401l893 1489h444zM1001 571l-60 535l-307 -535h367z" />
    <glyph glyph-name="uni0411" unicode="&#x411;" horiz-adv-x="1552" 
d="M1047 516q0 31 -9.5 56t-31.5 45q-23 20 -66.5 32.5t-107.5 12.5h-236l-90 -389h247q80 0 137.5 21t90.5 55q34 34 50 76.5t16 90.5zM1455 572q0 -137 -67.5 -258.5t-174.5 -195.5q-98 -67 -203 -92.5t-245 -25.5h-706l344 1489h1159l-67 -288h-775l-61 -267h302
q242 0 368 -92t126 -270z" />
    <glyph glyph-name="uni0412" unicode="&#x412;" horiz-adv-x="1560" 
d="M1499 1152q0 -136 -74.5 -224.5t-227.5 -133.5l-2 -8q121 -35 183.5 -101t62.5 -186q0 -235 -192.5 -367t-544.5 -132h-645l344 1489h543q269 0 411 -88.5t142 -248.5zM1093 1091q0 66 -52 95.5t-144 29.5h-173l-73 -315h175q126 0 196.5 48.5t70.5 141.5zM1050 489
q0 82 -62 118.5t-195 36.5h-201l-86 -371h194q168 0 259 55t91 161z" />
    <glyph glyph-name="uni0413" unicode="&#x413;" horiz-adv-x="1305" 
d="M1410 1201h-688l-277 -1201h-386l344 1489h1074z" />
    <glyph glyph-name="uni0414" unicode="&#x414;" horiz-adv-x="1723" 
d="M1443 -342h-355l80 347h-902l-80 -347h-355l145 625h113q153 214 293.5 532t223.5 674h1113l-278 -1206h147zM1055 283l213 923h-370q-83 -276 -199.5 -513.5t-239.5 -409.5h596z" />
    <glyph glyph-name="uni0415" unicode="&#x415;" horiz-adv-x="1399" 
d="M1482 1489l-65 -282h-695l-62 -266h645l-66 -283h-645l-87 -376h695l-64 -282h-1079l344 1489h1079z" />
    <glyph glyph-name="uni0416" unicode="&#x416;" horiz-adv-x="2284" 
d="M2155 0h-415l-280 615h-114l-142 -615h-384l142 615h-105l-514 -615h-453l681 788q-27 26 -46.5 81t-29.5 113q-15 89 -50.5 137.5t-116.5 48.5h-98l74 321q18 0 54 1.5t83 1.5q149 0 232 -61t113 -189q9 -38 19.5 -87t19.5 -87q28 -117 66 -158.5t129 -41.5l144 621h384
l-144 -621q85 1 136.5 38.5t140.5 163.5q23 34 57 86t57 86q95 136 197.5 193t256.5 57q51 0 94.5 -1.5t62.5 -1.5l-73 -317h-80q-39 0 -70.5 -10.5t-62.5 -36.5q-24 -19 -54.5 -60.5t-61.5 -87.5q-64 -95 -112 -142.5t-102 -68.5z" />
    <glyph glyph-name="uni0417" unicode="&#x417;" horiz-adv-x="1447" 
d="M1335 508q0 -121 -54.5 -222t-155.5 -169q-104 -71 -251 -108.5t-341 -37.5q-162 0 -308.5 28t-246.5 69l77 329h36q95 -62 210.5 -107.5t234.5 -45.5q86 0 160 16t124 49q52 34 80 83t28 118q0 84 -56 118.5t-194 34.5h-292l61 259h274q148 0 222 46.5t74 139.5
q0 65 -71 101t-190 36q-95 0 -216.5 -33t-271.5 -105h-37l72 313q93 33 248 65.5t318 32.5q264 0 409 -85.5t145 -240.5q0 -141 -106 -246.5t-259 -140.5l-3 -15q44 -8 95.5 -29t89.5 -53q41 -33 68 -83t27 -117z" />
    <glyph glyph-name="uni0418" unicode="&#x418;" horiz-adv-x="1738" 
d="M1419 0h-376l233 1001l-851 -1001h-366l344 1489h376l-211 -907l784 907h411z" />
    <glyph glyph-name="uni0419" unicode="&#x419;" horiz-adv-x="1738" 
d="M1419 0h-376l233 1001l-851 -1001h-366l344 1489h376l-211 -907l784 907h411zM1683 1980q-37 -188 -201 -293t-415 -105q-223 0 -343.5 83.5t-120.5 237.5q0 22 2.5 40.5t5.5 36.5h336q-4 -20 -5.5 -38.5t-1.5 -32.5q0 -71 37 -104.5t128 -33.5q110 0 165 51.5t77 157.5
h336z" />
    <glyph glyph-name="uni041A" unicode="&#x41a;" horiz-adv-x="1579" 
d="M1466 0h-423l-336 605h-122l-140 -605h-386l343 1489h386l-141 -610q90 4 141 36t157 163q26 33 62.5 80t67.5 87q61 76 118 126.5t110 76.5q52 25 110 34.5t143 9.5q51 0 91 -1.5t59 -1.5l-73 -317h-101q-46 0 -73 -9.5t-62 -35.5q-29 -22 -57 -54.5t-77 -96.5
q-80 -105 -133 -149t-98 -64z" />
    <glyph glyph-name="uni041B" unicode="&#x41b;" horiz-adv-x="1731" 
d="M1304 1206h-423q-27 -97 -43 -158t-41 -150q-59 -215 -110 -349t-100 -221q-50 -89 -98 -143t-101 -92q-72 -53 -149 -78t-160 -25q-50 0 -105 4t-70 6l77 333h14q10 -1 20.5 -3t25.5 -2q27 0 71.5 8t70.5 29q94 75 148.5 211.5t126.5 404.5q26 98 57.5 228.5t66.5 279.5
h1174l-344 -1489h-386z" />
    <glyph glyph-name="uni041C" unicode="&#x41c;" horiz-adv-x="1941" 
d="M1622 0h-384l225 974l-409 -624h-265l-132 665l-234 -1015h-364l344 1489h441l163 -747l506 747h453z" />
    <glyph glyph-name="uni041D" unicode="&#x41d;" horiz-adv-x="1715" 
d="M1740 1489l-344 -1489h-386l152 658h-565l-152 -658h-386l344 1489h386l-127 -548h565l127 548h386z" />
    <glyph glyph-name="uni041E" unicode="&#x41e;" horiz-adv-x="1741" 
d="M1707 935q0 -183 -62 -360t-180 -309q-129 -144 -301 -220.5t-396 -76.5q-305 0 -477.5 157.5t-172.5 433.5q0 194 66 369t189 308q120 129 297 206t386 77q306 0 478.5 -158t172.5 -427zM1158 427q68 89 106.5 206.5t38.5 270.5q0 160 -76.5 250.5t-218.5 90.5
q-93 0 -177.5 -42.5t-155.5 -129.5q-69 -83 -111 -206.5t-42 -277.5q0 -171 78.5 -258t217.5 -87q96 0 185 47.5t155 135.5z" />
    <glyph glyph-name="uni041F" unicode="&#x41f;" horiz-adv-x="1715" 
d="M1740 1489l-344 -1489h-386l278 1206h-565l-278 -1206h-386l344 1489h1337z" />
    <glyph glyph-name="uni0420" unicode="&#x420;" horiz-adv-x="1501" 
d="M1540 1077q0 -266 -220.5 -429t-616.5 -163h-146l-112 -485h-386l344 1489h535q146 0 254.5 -20t187.5 -69q78 -49 119 -127.5t41 -195.5zM1130 1040q0 87 -63 129t-187 42h-155l-103 -446h138q175 0 272.5 71.5t97.5 203.5z" />
    <glyph glyph-name="uni0421" unicode="&#x421;" horiz-adv-x="1482" 
d="M748 -29q-302 0 -466 148.5t-164 425.5q0 219 72.5 397t199.5 308q124 126 297.5 197t364.5 71q154 0 286 -31.5t238 -92.5l-88 -361h-44q-95 102 -189 150t-221 48q-223 0 -367.5 -179t-144.5 -456q0 -178 80 -258t234 -80q138 0 259 55.5t229 141.5h40l-87 -356
q-45 -18 -105 -43.5t-115 -41.5q-72 -21 -134.5 -32t-174.5 -11z" />
    <glyph glyph-name="uni0422" unicode="&#x422;" horiz-adv-x="1396" 
d="M1504 1201h-464l-277 -1201h-386l277 1201h-464l66 288h1314z" />
    <glyph glyph-name="uni0423" unicode="&#x423;" horiz-adv-x="1509" 
d="M1714 1489l-817 -1191q-73 -105 -147 -167t-147 -93q-72 -31 -137.5 -39.5t-128.5 -8.5q-69 0 -165.5 3.5t-125.5 6.5l73 319h23q20 -6 79 -12.5t96 -6.5q94 0 162 24t89 61l-345 1104h395l212 -733l475 733h409z" />
    <glyph glyph-name="uni0424" unicode="&#x424;" horiz-adv-x="1950" 
d="M1916 866q0 -162 -60 -290.5t-170 -218.5q-112 -91 -266 -143.5t-350 -63.5l-38 -164h-382l39 166q-131 12 -236 49t-180 99q-73 60 -113 146t-40 191q0 159 59 287.5t171 221.5q112 92 270 144t346 63l35 153h382l-36 -155q263 -24 416 -146.5t153 -338.5zM910 1109
q-192 -23 -291.5 -142t-99.5 -304q0 -105 52 -175.5t173 -92.5zM1517 840q0 103 -51 173t-174 95l-166 -714q190 23 290.5 140.5t100.5 305.5z" />
    <glyph glyph-name="uni0425" unicode="&#x425;" horiz-adv-x="1564" 
d="M610 768l-361 721h418l219 -469l435 469h425l-701 -742l365 -747h-419l-223 495l-450 -495h-424z" />
    <glyph glyph-name="uni0426" unicode="&#x426;" horiz-adv-x="1740" 
d="M1185 0h-1126l344 1489h385l-278 -1206h562l278 1206h385l-277 -1206h147l-144 -625h-355z" />
    <glyph glyph-name="uni0427" unicode="&#x427;" horiz-adv-x="1612" 
d="M1293 0h-386l128 551q-121 -23 -203.5 -36t-217.5 -13q-193 0 -299.5 86t-106.5 232q0 31 4 69.5t13 79.5l119 520h388l-81 -353q-10 -40 -18 -90.5t-8 -82.5q0 -45 12 -76t43 -54t77.5 -34.5t127.5 -11.5q40 0 102.5 5t104.5 12l159 685h386z" />
    <glyph glyph-name="uni0428" unicode="&#x428;" horiz-adv-x="2383" 
d="M2065 0h-2005l343 1489h385l-278 -1206h425l278 1206h385l-278 -1206h425l278 1206h385z" />
    <glyph glyph-name="uni0429" unicode="&#x429;" horiz-adv-x="2411" 
d="M1857 0h-1797l343 1489h385l-278 -1206h425l278 1206h385l-278 -1206h425l278 1206h385l-277 -1204h147l-145 -627h-355z" />
    <glyph glyph-name="uni042A" unicode="&#x42a;" horiz-adv-x="1858" 
d="M1353 516q0 31 -9.5 56t-31.5 45q-23 20 -66.5 32.5t-107.5 12.5h-235l-90 -389h246q80 0 137.5 21t90.5 55q34 34 50 76.5t16 90.5zM1761 572q0 -137 -67.5 -258.5t-174.5 -195.5q-98 -67 -203 -92.5t-245 -25.5h-705l278 1201h-455l66 288h840l-129 -555h301
q242 0 368 -92t126 -270z" />
    <glyph glyph-name="uni042B" unicode="&#x42b;" horiz-adv-x="2176" 
d="M1047 516q0 31 -9.5 56t-31.5 45q-23 20 -66.5 32.5t-107.5 12.5h-235l-90 -389h246q80 0 137.5 21t90.5 55q34 34 50 76.5t16 90.5zM1455 572q0 -137 -67.5 -258.5t-174.5 -195.5q-98 -67 -203 -92.5t-245 -25.5h-706l344 1489h386l-129 -555h301q242 0 368 -92
t126 -270zM1857 0h-386l344 1489h386z" />
    <glyph glyph-name="uni042C" unicode="&#x42c;" horiz-adv-x="1552" 
d="M1047 516q0 31 -9.5 56t-31.5 45q-23 20 -66.5 32.5t-107.5 12.5h-235l-90 -389h246q80 0 137.5 21t90.5 55q34 34 50 76.5t16 90.5zM1455 572q0 -137 -67.5 -258.5t-174.5 -195.5q-98 -67 -203 -92.5t-245 -25.5h-706l344 1489h386l-129 -555h301q242 0 368 -92
t126 -270z" />
    <glyph glyph-name="uni042D" unicode="&#x42d;" horiz-adv-x="1519" 
d="M1485 941q0 -224 -76.5 -405.5t-207.5 -305.5q-133 -126 -306 -192.5t-369 -66.5q-161 0 -297 35.5t-233 79.5l77 331h37q64 -74 176.5 -126.5t248.5 -52.5q64 0 147 21.5t149 64.5q72 47 132.5 124t94.5 191h-673l63 277h654v14q0 84 -30 145.5t-79 100.5
q-48 37 -110 56t-130 19q-123 0 -254.5 -50.5t-249.5 -138.5h-42l77 340q110 47 249 81.5t304 34.5q299 0 473.5 -155.5t174.5 -421.5z" />
    <glyph glyph-name="uni042E" unicode="&#x42e;" horiz-adv-x="2448" 
d="M1871 427q65 90 102 207t37 270q0 92 -22 156.5t-62 105.5q-37 40 -88 59.5t-110 19.5q-90 0 -171 -43t-148 -129q-66 -84 -104.5 -207.5t-38.5 -276.5q0 -93 22.5 -159.5t60.5 -107.5t89.5 -59.5t110.5 -18.5q91 0 176 48.5t146 134.5zM874 659h-277l-152 -659h-386
l344 1489h386l-127 -548h273q49 129 128 234t187 183q106 76 242 119t288 43q296 0 465 -158t169 -427q0 -185 -60 -360.5t-176 -308.5q-117 -135 -287.5 -216t-390.5 -81q-295 0 -462.5 159.5t-167.5 436.5q0 28 1 47t3 47z" />
    <glyph glyph-name="uni042F" unicode="&#x42f;" horiz-adv-x="1628" 
d="M1309 0h-384l127 550h-191l-519 -550h-454l597 617q-101 52 -161 138.5t-60 199.5q0 138 69 254.5t191 187.5q81 48 182.5 70t225.5 22h721zM1112 811l94 404h-196q-87 0 -136 -6t-98 -38q-47 -31 -76 -82t-29 -112q0 -38 10 -67t35 -52q35 -32 82 -39.5t134 -7.5h180z
" />
    <glyph glyph-name="uni0430" unicode="&#x430;" horiz-adv-x="1368" 
d="M843 530q-96 -8 -180 -19t-143 -32q-61 -22 -93 -62t-32 -106q0 -58 42.5 -81.5t123.5 -23.5q53 0 113.5 24.5t113.5 62.5zM748 119q-34 -22 -82 -53t-89 -49q-56 -23 -105 -35t-136 -12q-140 0 -228.5 78.5t-88.5 204.5q0 133 63 225.5t187 147.5q116 52 276.5 75
t347.5 34q1 6 4 19.5t3 30.5q0 71 -66 99.5t-197 28.5q-89 0 -196.5 -30t-161.5 -50h-33l53 266q63 16 195 36t263 20q264 0 387.5 -69t123.5 -214q0 -20 -3.5 -52t-9.5 -56l-176 -764h-358z" />
    <glyph glyph-name="uni0431" unicode="&#x431;" horiz-adv-x="1427" 
d="M1235 972q57 -49 90 -121.5t33 -173.5q0 -151 -52 -282.5t-151 -227.5q-96 -95 -230 -148.5t-297 -53.5q-250 0 -381.5 129.5t-131.5 374.5q0 112 23 234t71 250q47 125 115 232t160 181q100 81 235 121t296 55q98 9 231.5 15t213.5 8l-51 -261q-70 -3 -126.5 -5.5
t-126.5 -7.5q-250 -18 -339 -46t-141 -80q-36 -35 -64 -87t-49 -126q91 53 187.5 85t194.5 32q87 0 159.5 -23.5t130.5 -73.5zM982 591q0 95 -55 156t-156 61q-58 0 -117 -10.5t-133 -44.5q-20 -67 -31.5 -151.5t-11.5 -156.5q0 -114 56.5 -174.5t146.5 -60.5
q42 0 98.5 24.5t97.5 67.5q49 53 77 124t28 165z" />
    <glyph glyph-name="uni0432" unicode="&#x432;" horiz-adv-x="1387" 
d="M1264 386q0 -91 -47.5 -172.5t-126.5 -133.5q-69 -45 -148 -62.5t-193 -17.5h-709l259 1123h632q96 0 167 -16t115 -44q43 -28 64.5 -68t21.5 -91q0 -106 -61.5 -177.5t-152.5 -112.5v-11q76 -20 127.5 -76.5t51.5 -140.5zM928 807q0 48 -35 70.5t-105 22.5h-183
l-51 -226h197q87 0 132 34t45 99zM886 377q0 55 -36 80.5t-107 25.5h-234l-59 -259h249q87 0 137 38.5t50 114.5z" />
    <glyph glyph-name="uni0433" unicode="&#x433;" horiz-adv-x="1088" 
d="M1150 879h-546l-202 -879h-362l259 1123h908z" />
    <glyph glyph-name="uni0434" unicode="&#x434;" horiz-adv-x="1416" 
d="M1148 -278h-323l65 282h-660l-65 -282h-323l119 520h93q110 155 211 390t160 491h930l-203 -881h116zM791 242l148 637h-245q-57 -178 -138.5 -350t-164.5 -287h400z" />
    <glyph glyph-name="uni0435" unicode="&#x435;" horiz-adv-x="1360" 
d="M949 706q3 18 4.5 33t1.5 31q0 79 -49 121t-141 42q-111 0 -186.5 -60t-114.5 -167h485zM674 -30q-287 0 -443 127t-156 351q0 153 51 281t147 225q92 94 230 149t303 55q251 0 378.5 -101.5t127.5 -299.5q0 -68 -13.5 -133t-35.5 -129h-834v-11.5v-11.5q0 -117 82 -183
t251 -66q118 0 223.5 40t183.5 89h40l-67 -289q-105 -46 -221 -69.5t-247 -23.5z" />
    <glyph glyph-name="uni0436" unicode="&#x436;" horiz-adv-x="2046" 
d="M1885 0h-379l-220 448h-108l-104 -448h-360l104 448h-101l-382 -448h-417l523 590q-22 20 -34.5 51.5t-18.5 60.5q-5 24 -10.5 44.5t-23.5 43.5q-15 20 -38.5 32t-61.5 12h-101l67 289q18 0 52 1t75 1q110 0 180.5 -41.5t107.5 -151.5q8 -25 19 -62t22 -68
q28 -84 62.5 -108.5t128.5 -24.5l105 454h360l-105 -454q94 1 126.5 24.5t104.5 114.5q19 25 47.5 64t50.5 67q72 92 152.5 139t223.5 47q40 0 86 -1t62 -1l-66 -289h-93q-40 0 -67 -11.5t-50 -31.5q-20 -16 -38.5 -43t-30.5 -44q-39 -57 -72.5 -89t-68.5 -49z" />
    <glyph glyph-name="uni0437" unicode="&#x437;" horiz-adv-x="1204" 
d="M871 52q-87 -43 -199.5 -63t-235.5 -20q-149 0 -268 27t-210 60l62 267h40q71 -44 163.5 -78.5t194.5 -34.5q40 0 98 7.5t91 22.5q42 19 66.5 47.5t24.5 80.5q0 32 -15.5 51.5t-47.5 30.5q-30 11 -77.5 14t-93.5 3h-180l50 221h143q45 0 103.5 2.5t95.5 12.5
q45 12 71 35.5t26 72.5q0 27 -19 47t-50 32t-69 17.5t-76 5.5q-76 0 -174.5 -28t-183.5 -68h-39l61 269q63 18 193 43.5t251 25.5q99 0 180 -15t152 -50q68 -34 108 -86t40 -125q0 -109 -78.5 -191t-183.5 -110l-1 -9q78 -23 134 -77t56 -139q0 -108 -55.5 -182.5
t-147.5 -118.5z" />
    <glyph glyph-name="uni0438" unicode="&#x438;" horiz-adv-x="1480" 
d="M1181 0h-350l157 677l-650 -677h-298l259 1123h349l-141 -605l598 605h335z" />
    <glyph glyph-name="uni0439" unicode="&#x439;" horiz-adv-x="1480" 
d="M1181 0h-350l157 677l-650 -677h-298l259 1123h349l-141 -605l598 605h335zM1366 1621q-35 -175 -168.5 -272t-343.5 -97q-184 0 -282 77t-98 213q0 20 2 38.5t6 40.5h278q-4 -21 -5.5 -40t-1.5 -33q0 -63 31.5 -94.5t102.5 -31.5q91 0 136 51t65 148h278z" />
    <glyph glyph-name="uni043A" unicode="&#x43a;" horiz-adv-x="1374" 
d="M1245 0h-379l-200 448h-161l-103 -448h-362l259 1123h362l-105 -454q98 1 137 23t111 113q20 26 50 66.5t47 63.5q66 89 150 139.5t226 50.5q40 0 86 -1t62 -1l-66 -289h-90q-54 0 -94 -28.5t-86 -97.5q-45 -65 -63.5 -86.5t-54.5 -43.5z" />
    <glyph glyph-name="uni043B" unicode="&#x43b;" horiz-adv-x="1453" 
d="M1155 0h-362l203 879h-294q-14 -55 -30.5 -119.5t-25.5 -98.5q-28 -113 -58.5 -199.5t-63.5 -150.5q-54 -104 -132 -183.5t-167 -111.5q-43 -14 -78 -18.5t-84 -4.5q-47 0 -97 3.5t-59 3.5l67 288h11q4 0 15 -2t21 -2q61 0 92.5 15.5t67.5 62.5q42 55 77 135t82 260
q23 87 43.5 164.5t50.5 201.5h980z" />
    <glyph glyph-name="uni043C" unicode="&#x43c;" horiz-adv-x="1700" 
d="M1401 0h-351l159 685l-361 -448h-158l-144 484l-166 -721h-341l260 1123h391l160 -522l418 522h393z" />
    <glyph glyph-name="uni043D" unicode="&#x43d;" horiz-adv-x="1474" 
d="M1176 0h-362l113 486h-413l-112 -486h-362l259 1123h361l-90 -394h412l91 394h362z" />
    <glyph glyph-name="uni043E" unicode="&#x43e;" horiz-adv-x="1404" 
d="M1335 712q0 -158 -53 -296t-149 -237q-100 -103 -232 -158.5t-308 -55.5q-251 0 -385 120t-134 332q0 150 50 285t148 238q95 101 233.5 159.5t310.5 58.5q252 0 385.5 -118.5t133.5 -327.5zM867 344q46 70 69.5 153t23.5 202q0 103 -45 158.5t-143 55.5
q-76 0 -133.5 -37t-101.5 -105q-41 -63 -64.5 -156t-23.5 -191q0 -115 51 -164.5t140 -49.5q65 0 125 35.5t102 98.5z" />
    <glyph glyph-name="uni043F" unicode="&#x43f;" horiz-adv-x="1474" 
d="M1176 0h-362l202 879h-412l-202 -879h-362l259 1123h1136z" />
    <glyph glyph-name="uni0440" unicode="&#x440;" horiz-adv-x="1432" 
d="M1366 764q0 -155 -50.5 -300.5t-137.5 -250.5q-91 -111 -205.5 -173t-256.5 -62q-90 0 -165.5 20.5t-136.5 57.5l-108 -468h-362l355 1535h362l-27 -117q102 70 188.5 109t191.5 39q170 0 261 -103.5t91 -286.5zM897 370q43 63 66 147.5t23 183.5q0 91 -40 139.5
t-143 48.5q-53 0 -104 -18.5t-108 -48.5l-130 -565q32 -14 74.5 -21.5t87.5 -7.5q91 0 161 39t113 103z" />
    <glyph glyph-name="uni0441" unicode="&#x441;" horiz-adv-x="1205" 
d="M620 -30q-115 0 -215.5 28.5t-175.5 88.5q-73 59 -114 148t-41 206q0 151 57.5 280.5t161.5 226.5q102 95 249 150.5t318 55.5q103 0 204.5 -23t188.5 -67l-76 -307h-51q-59 71 -133.5 105.5t-167.5 34.5q-170 0 -273 -120.5t-103 -300.5q0 -125 63.5 -187t197.5 -62
q104 0 189.5 42.5t146.5 94.5h51l-76 -307q-108 -47 -189.5 -67t-211.5 -20z" />
    <glyph glyph-name="uni0442" unicode="&#x442;" horiz-adv-x="1096" 
d="M1160 879h-358l-203 -879h-362l203 879h-358l56 244h1078z" />
    <glyph glyph-name="uni0443" unicode="&#x443;" horiz-adv-x="1333" 
d="M454 -412h-395l286 434l-185 1101h368l97 -736l428 736h380z" />
    <glyph glyph-name="uni0444" unicode="&#x444;" horiz-adv-x="1978" 
d="M1921 758q0 -176 -56 -319.5t-147 -243.5t-206.5 -155t-237.5 -55q-84 0 -139 19.5t-85 39.5l-105 -456h-358l105 454q-34 -19 -97 -38t-147 -19q-181 0 -283.5 103.5t-102.5 281.5q0 174 55 317.5t148 246.5q92 102 209 155.5t235 53.5q83 0 136.5 -19t87.5 -40l109 472
h358l-109 -471q34 16 104 37t140 21q181 0 283.5 -103.5t102.5 -281.5zM1546 689q0 100 -53 153t-159 53q-28 0 -49.5 -3t-39.5 -6l-149 -643q21 -4 41.5 -6t48.5 -2q82 0 150 35t113 96q46 61 71.5 143t25.5 180zM738 242l149 643q-18 4 -44 6t-46 2q-82 0 -148 -34.5
t-115 -96.5q-45 -58 -71 -144.5t-26 -178.5q0 -100 53 -153t159 -53q20 0 45.5 2.5t43.5 6.5z" />
    <glyph glyph-name="uni0445" unicode="&#x445;" horiz-adv-x="1370" 
d="M479 571l-316 552h388l179 -342l323 342h416l-575 -563l320 -560h-388l-181 346l-334 -346h-415z" />
    <glyph glyph-name="uni0446" unicode="&#x446;" horiz-adv-x="1493" 
d="M966 0h-926l259 1123h362l-203 -881h409l203 881h362l-203 -881h116l-120 -520h-323z" />
    <glyph glyph-name="uni0447" unicode="&#x447;" horiz-adv-x="1401" 
d="M1103 0h-362l89 386q-98 -19 -198 -31.5t-164 -12.5q-150 0 -241.5 64.5t-91.5 187.5q0 34 5.5 69t9.5 57l93 403h364l-60 -258q-9 -38 -14.5 -74.5t-5.5 -63.5q0 -67 44.5 -101.5t172.5 -34.5q25 0 66.5 2.5t68.5 6.5l121 523h362z" />
    <glyph glyph-name="uni0448" unicode="&#x448;" horiz-adv-x="2053" 
d="M1755 0h-1715l259 1123h361l-203 -881h316l203 881h361l-203 -881h316l203 881h361z" />
    <glyph glyph-name="uni0449" unicode="&#x449;" horiz-adv-x="2074" 
d="M1548 0h-1509l260 1123h361l-203 -881h316l203 881h361l-203 -881h316l203 881h361l-203 -881h116l-120 -520h-323z" />
    <glyph glyph-name="uni044A" unicode="&#x44a;" horiz-adv-x="1522" 
d="M1051 402q0 55 -36 87t-117 32h-185l-68 -295h204q64 0 106 21.5t62 49.5q21 31 27.5 58.5t6.5 46.5zM1427 449q0 -110 -49.5 -204t-136.5 -155q-71 -49 -150 -69.5t-206 -20.5h-653l203 879h-353l56 244h714l-87 -375h257q200 0 302.5 -79.5t102.5 -219.5z" />
    <glyph glyph-name="uni044B" unicode="&#x44b;" horiz-adv-x="1919" 
d="M859 402q0 55 -36 87t-117 32h-185l-68 -295h204q64 0 106 21.5t62 49.5q21 31 27.5 58.5t6.5 46.5zM1235 449q0 -110 -49.5 -204t-136.5 -155q-71 -49 -150 -69.5t-206 -20.5h-653l259 1123h361l-87 -375h257q200 0 302.5 -79.5t102.5 -219.5zM1621 0h-362l259 1123h362
z" />
    <glyph glyph-name="uni044C" unicode="&#x44c;" horiz-adv-x="1330" 
d="M859 402q0 55 -36 87t-117 32h-185l-68 -295h204q64 0 106 21.5t62 49.5q21 31 27.5 58.5t6.5 46.5zM1235 449q0 -110 -49.5 -204t-136.5 -155q-71 -49 -150 -69.5t-206 -20.5h-653l259 1123h361l-87 -375h257q200 0 302.5 -79.5t102.5 -219.5z" />
    <glyph glyph-name="uni044D" unicode="&#x44d;" horiz-adv-x="1246" 
d="M1177 707q0 -174 -62 -313t-173 -234q-112 -95 -256 -142.5t-315 -47.5q-131 0 -230.5 28.5t-156.5 53.5l65 279h49q55 -62 134.5 -96t190.5 -34q138 0 236.5 70t137.5 196h-521l51 223h508v12q0 105 -73 162.5t-181 57.5q-68 0 -123.5 -13t-110.5 -35q-57 -24 -90 -44.5
t-63 -39.5h-49l65 279q92 36 195.5 60.5t217.5 24.5q256 0 405 -117t149 -330z" />
    <glyph glyph-name="uni044E" unicode="&#x44e;" horiz-adv-x="2036" 
d="M1595 699q0 105 -45.5 159.5t-144.5 54.5q-76 0 -133.5 -37t-102.5 -105q-41 -63 -64.5 -156t-23.5 -191q0 -115 51.5 -164.5t140.5 -49.5q66 0 126.5 35.5t102.5 98.5q46 70 69.5 153t23.5 202zM1967 712q0 -156 -52.5 -295t-146.5 -238q-97 -101 -230 -157.5
t-302 -56.5q-244 0 -377.5 118.5t-133.5 335.5q0 20 1 36.5t2 30.5h-214l-112 -486h-362l259 1123h361l-90 -394h215q39 96 103.5 175t146.5 134q84 57 192 88.5t229 31.5q248 0 379.5 -119t131.5 -327z" />
    <glyph glyph-name="uni044F" unicode="&#x44f;" horiz-adv-x="1396" 
d="M1098 0h-361l91 393h-159l-334 -393h-417l399 452q-70 40 -114.5 104.5t-44.5 155.5q0 109 54 196t153 144q63 37 145 54t167 17h680zM877 609l65 282h-213q-87 0 -140.5 -42t-53.5 -124q0 -56 36 -86t105 -30h201z" />
    <glyph glyph-name="uni0451" unicode="&#x451;" horiz-adv-x="1360" 
d="M949 706q3 18 4.5 33t1.5 31q0 79 -49 121t-141 42q-111 0 -186.5 -60t-114.5 -167h485zM674 -30q-287 0 -443 127t-156 351q0 153 51 281t147 225q92 94 230 149t303 55q251 0 378.5 -101.5t127.5 -299.5q0 -68 -13.5 -133t-35.5 -129h-834v-11.5v-11.5q0 -117 82 -183
t251 -66q118 0 223.5 40t183.5 89h40l-67 -289q-105 -46 -221 -69.5t-247 -23.5zM1280 1556l-63 -273h-297l63 273h297zM743 1556l-63 -273h-297l63 273h297z" />
    <glyph glyph-name="uni0452" unicode="&#x452;" horiz-adv-x="1459" 
d="M712 -79q48 46 87.5 136.5t81.5 254.5l21.5 86t18.5 79q6 29 25 120.5t19 136.5q0 68 -32.5 102t-122.5 34q-43 0 -99 -18.5t-125 -55.5l-184 -796h-362l286 1240h-129l46 201h129l27 115h362l-27 -115h324l-46 -201h-324l-55 -241q110 73 202 114t202 41
q142 0 227.5 -71t85.5 -217q0 -54 -19 -156t-46 -219q-19 -80 -32.5 -136t-28.5 -113q-45 -180 -118.5 -305.5t-163.5 -201.5q-93 -78 -190 -111t-200 -33q-55 0 -106.5 0.5t-93.5 3.5l59 257h42q83 0 148 12t111 57z" />
    <glyph glyph-name="uni0453" unicode="&#x453;" horiz-adv-x="1088" 
d="M1150 879h-546l-202 -879h-362l259 1123h908zM1279 1656l-438 -373h-256l313 393h381v-20z" />
    <glyph glyph-name="uni0454" unicode="&#x454;" horiz-adv-x="1241" 
d="M1047 52q-113 -44 -208.5 -63t-189.5 -19q-268 0 -421.5 122t-153.5 341q0 159 57 291t160 228q101 94 247.5 148t316.5 54q100 0 205.5 -22t192.5 -63l-63 -280h-49q-54 57 -138 94.5t-189 37.5q-115 0 -205.5 -57t-136.5 -174h511l-49 -223h-514q-1 -10 -1 -18.5v-15.5
q0 -113 68 -172.5t193 -59.5q113 0 206 36t175 100h49z" />
    <glyph glyph-name="uni0455" unicode="&#x455;" horiz-adv-x="1215" 
d="M473 -31q-144 0 -279 27t-207 63l69 296h33q22 -19 55.5 -42t95.5 -48q53 -23 123 -39.5t151 -16.5q121 0 181.5 28t60.5 80q0 40 -43 61t-178 52q-229 53 -313.5 128t-84.5 187q0 190 170 299.5t460 109.5q126 0 252 -25.5t185 -54.5l-66 -284h-31q-71 55 -171.5 89.5
t-206.5 34.5q-115 0 -176.5 -27.5t-61.5 -84.5q0 -44 53 -67.5t167 -48.5q212 -46 305.5 -116t93.5 -196q0 -188 -172 -296.5t-465 -108.5z" />
    <glyph glyph-name="uni0456" unicode="&#x456;" horiz-adv-x="700" 
d="M662 1123l-260 -1123h-362l260 1123h362zM772 1556l-63 -273h-382l63 273h382z" />
    <glyph glyph-name="uni0457" unicode="&#x457;" horiz-adv-x="700" 
d="M662 1123l-260 -1123h-362l260 1123h362zM945 1556l-63 -273h-277l63 273h277zM486 1556l-63 -273h-277l63 273h277z" />
    <glyph glyph-name="uni0458" unicode="&#x458;" horiz-adv-x="825" 
d="M787 1123l-259 -1119q-46 -196 -178.5 -311.5t-339.5 -115.5q-101 0 -175 8t-115 18l59 258h28q33 -12 66.5 -18t74.5 -6q95 1 149 50.5t81 168.5l190 823h-213l57 244h575zM884 1556l-63 -273h-382l63 273h382z" />
    <glyph glyph-name="uni0459" unicode="&#x459;" horiz-adv-x="2073" 
d="M1602 402q0 55 -36 87t-117 32h-185l-68 -295h204q64 0 106 21.5t62 49.5q21 31 27.5 58.5t6.5 46.5zM1978 449q0 -110 -49.5 -204t-136.5 -155q-71 -49 -150 -69.5t-206 -20.5h-652l203 879h-285q-14 -55 -30.5 -119.5t-25.5 -98.5q-28 -113 -58.5 -199.5t-63.5 -150.5
q-54 -104 -132 -183.5t-167 -111.5q-43 -14 -78 -18.5t-84 -4.5q-47 0 -97 3.5t-59 3.5l67 288h11q4 0 15 -2t21 -2q61 0 92.5 15.5t67.5 62.5q42 55 77 135t82 260q23 87 43.5 164.5t50.5 201.5h969l-87 -375h257q200 0 302.5 -79.5t102.5 -219.5z" />
    <glyph glyph-name="uni045A" unicode="&#x45a;" horiz-adv-x="2088" 
d="M1617 402q0 55 -36 87t-117 32h-185l-68 -295h204q64 0 106 21.5t62 49.5q21 31 27.5 58.5t6.5 46.5zM1993 449q0 -110 -49.5 -204t-136.5 -155q-71 -49 -150 -69.5t-206 -20.5h-653l119 518h-396l-119 -518h-362l259 1123h361l-87 -378h396l88 378h361l-87 -375h257
q200 0 302.5 -79.5t102.5 -219.5z" />
    <glyph glyph-name="uni045B" unicode="&#x45b;" horiz-adv-x="1459" 
d="M1356 869q0 -24 -4 -62t-13 -76l-169 -731h-364l129 557q14 64 22 108t8 79q0 67 -33.5 96.5t-121.5 29.5q-43 0 -99 -18.5t-125 -55.5l-184 -796h-362l286 1240h-129l46 201h129l27 115h362l-27 -115h324l-46 -201h-324l-55 -241q110 73 202 114t202 41q153 0 236 -74.5
t83 -210.5z" />
    <glyph glyph-name="uni045C" unicode="&#x45c;" horiz-adv-x="1374" 
d="M1245 0h-379l-200 448h-161l-103 -448h-362l259 1123h362l-105 -454q98 1 137 23t111 113q20 26 50 66.5t47 63.5q66 89 150 139.5t226 50.5q40 0 86 -1t62 -1l-66 -289h-90q-54 0 -94 -28.5t-86 -97.5q-45 -65 -63.5 -86.5t-54.5 -43.5zM1319 1656l-438 -373h-256
l313 393h381v-20z" />
    <glyph glyph-name="uni045D" unicode="&#x45d;" horiz-adv-x="1480" 
d="M1181 0h-350l157 677l-650 -677h-298l259 1123h349l-141 -605l598 605h335zM1035 1283h-226l-286 373v20h341z" />
    <glyph glyph-name="uni045E" unicode="&#x45e;" horiz-adv-x="1333" 
d="M454 -412h-395l286 434l-185 1101h368l97 -736l428 736h380zM1283 1621q-35 -175 -168.5 -272t-343.5 -97q-184 0 -282 77t-98 213q0 20 2 38.5t6 40.5h278q-4 -21 -5.5 -40t-1.5 -33q0 -63 31.5 -94.5t102.5 -31.5q91 0 136 51t65 148h278z" />
    <glyph glyph-name="uni045F" unicode="&#x45f;" horiz-adv-x="1474" 
d="M447 0h-407l259 1123h362l-203 -881h412l203 881h362l-259 -1123h-407l-65 -280h-322z" />
    <glyph glyph-name="uni0478" unicode="&#x478;" horiz-adv-x="2759" 
d="M689 -31q-138 0 -244 39t-179 112.5t-110.5 179t-37.5 238.5q0 137 28 262.5t80.5 234.5t128.5 198.5t172.5 153t211.5 98.5t246 35q136 0 242 -39t178.5 -113t110 -179.5t37.5 -239.5q0 -136 -27.5 -262t-80 -235t-128 -198t-171.5 -152.5t-211 -98t-246 -34.5z
M1163 960q0 75 -15.5 128t-43 86.5t-66.5 49t-87 15.5q-57 0 -112 -26t-104 -72.5t-90.5 -112t-71.5 -144.5t-47 -169t-17 -187q0 -146 56.5 -212t156.5 -66q59 0 114.5 26t104.5 73.5t90 113t70 144.5t45.5 168.5t16.5 184.5zM2113 387l406 736h356l-902 -1535h-371
l249 415l-144 1120h332z" />
    <glyph glyph-name="uni0479" unicode="&#x479;" horiz-adv-x="2514" 
d="M587 -35q-119 0 -214 29.5t-161.5 87.5t-102 143t-35.5 196q0 103 21.5 197t62.5 176t100.5 149t137 115t171.5 74t203 26q116 0 208.5 -29.5t157.5 -87t99.5 -142.5t34.5 -196q0 -167 -48.5 -303t-137.5 -233t-215.5 -149.5t-281.5 -52.5zM903 702q0 55 -13 94t-35 63.5
t-51.5 36t-61.5 11.5q-55 0 -98.5 -23.5t-77.5 -62.5t-58 -89.5t-39.5 -105t-22.5 -108.5t-7 -101q0 -100 44 -150.5t122 -50.5q54 0 97 22.5t76 60.5t57 87.5t39 103.5t22 109t7 103zM1847 387l406 736h356l-902 -1535h-371l249 415l-144 1120h332z" />
    <glyph glyph-name="uni047C" unicode="&#x47c;" horiz-adv-x="2142" 
d="M984 89q-41 -28 -83.5 -50.5t-89.5 -38t-99 -23.5t-113 -8q-108 0 -196.5 33t-151.5 100t-97 167.5t-34 236.5q0 141 25 271t70.5 243t110.5 205t145 157.5t174 101.5t197 36q43 0 78.5 -2.5t67.5 -7.5t64 -12t67 -16l-71 -305h-34q-18 15 -32.5 26.5t-30.5 19.5
t-35.5 12t-46.5 4q-46 0 -91 -27.5t-84.5 -77t-73 -117t-58 -148t-38 -171t-13.5 -184.5q0 -136 52.5 -200t143.5 -64q50 0 91.5 16t79 43t73 62.5t72.5 74.5h38q17 -42 35.5 -77.5t44 -62t60.5 -41.5t84 -15q63 0 119.5 29.5t105 82t87 125.5t66 159t42 183t14.5 198
q0 106 -37 159t-106 53q-50 0 -90.5 -16.5t-86.5 -45.5h-37l71 305q32 9 61.5 16t60.5 12t65.5 7.5t77.5 2.5q97 0 172.5 -32.5t128 -96.5t80 -157t27.5 -215q0 -237 -56.5 -430.5t-159.5 -331.5t-247 -213t-318 -75q-121 0 -202.5 31.5t-138.5 88.5zM1430 1678
q-21 -96 -79 -145.5t-168 -53.5l22 96q48 6 75 26t38 67h-104l39 174h213zM1687 1869q-65 0 -112 8.5t-83 21.5t-64 28.5t-55 28.5t-55.5 21.5t-65.5 8.5q-57 0 -89 -29.5t-52 -92.5h-226q18 88 52.5 150.5t82 102.5t107.5 59t130 19q52 0 91 -9t71.5 -22.5t61 -29.5
t59.5 -29.5t67 -22.5t83 -9h180l-48 -204h-135z" />
    <glyph glyph-name="uni047D" unicode="&#x47d;" horiz-adv-x="1839" 
d="M1125 218q45 0 83.5 21.5t69 59t54 87t39.5 106t24 117t8 118.5q0 85 -34 125.5t-92 40.5q-46 0 -80.5 -14.5t-72.5 -36.5h-12l61 264q27 8 51.5 15t50 12t52.5 7.5t59 2.5q90 0 160 -27.5t118 -80t72.5 -129.5t24.5 -175q0 -160 -37 -299t-112.5 -241.5t-190.5 -161.5
t-271 -59q-111 0 -186.5 36t-118.5 98h-6q-63 -58 -147 -96t-190 -38q-109 0 -188 28t-130.5 82t-76 132.5t-24.5 179.5q0 165 44 303t122.5 237.5t187 155t238.5 55.5q72 0 127.5 -10t109.5 -27l-61 -264h-12q-17 12 -32.5 21.5t-31.5 16t-34 10t-41 3.5q-56 0 -104 -40
t-83 -109t-54.5 -160.5t-19.5 -194.5q0 -82 31.5 -126.5t99.5 -44.5q49 0 89.5 16.5t77.5 46t72.5 68.5t73.5 84h17q18 -45 37 -84t44.5 -68.5t60 -46t83.5 -16.5zM1199 1303q-21 -96 -79 -145.5t-168 -53.5l22 96q48 6 75 26t38 67h-104l39 174h213zM1458 1494
q-64 0 -111.5 8.5t-83.5 21.5t-64 28.5t-55 28.5t-55.5 21.5t-65.5 8.5q-57 0 -89 -29.5t-52 -92.5h-226q18 88 52.5 150.5t82 102.5t107.5 59t130 19q52 0 91 -9t71.5 -22.5t61 -29.5t59.5 -29.5t67 -22.5t83 -9h180l-48 -204h-135z" />
    <glyph glyph-name="uni0487" unicode="&#x487;" horiz-adv-x="1302" 
d="M1129 1285q-64 0 -111.5 8.5t-83.5 21.5t-64 28.5t-55 28.5t-55.5 21.5t-65.5 8.5q-57 0 -89 -29.5t-52 -92.5h-226q18 88 52.5 150.5t82 102.5t107.5 59t130 19q52 0 91 -9t71.5 -22.5t61 -29.5t59.5 -29.5t67 -22.5t83 -9h180l-48 -204h-135z" />
    <glyph glyph-name="uni0490" unicode="&#x490;" horiz-adv-x="1305" 
d="M722 1201l-277 -1201h-386l344 1489h733l95 410h341l-162 -698h-688z" />
    <glyph glyph-name="uni0491" unicode="&#x491;" horiz-adv-x="1088" 
d="M604 879l-202 -879h-362l259 1123h600l84 363h307l-140 -607h-546z" />
    <glyph glyph-name="uni0492" unicode="&#x492;" horiz-adv-x="1305" 
d="M1477 1489l-67 -288h-688l-67 -289h318l-53 -233h-318l-157 -679h-386l157 679h-161l53 233h162l133 577h1074z" />
    <glyph glyph-name="uni0493" unicode="&#x493;" horiz-adv-x="1088" 
d="M1207 1123l-57 -244h-546l-48 -209h324l-48 -207h-324l-106 -463h-362l107 463h-130l48 207h130l104 453h908z" />
    <glyph glyph-name="uni0496" unicode="&#x496;" horiz-adv-x="2284" 
d="M2406 1489l-73 -317h-80q-76 0 -133 -47q-36 -30 -116 -148q-117 -173 -214 -211l230 -483h205l-144 -625h-355l79 342h-65l-280 615h-114l-142 -615h-384l142 615h-105l-514 -615h-453l681 788q-51 50 -76 194q-15 91 -45 132q-40 54 -122 54h-98l74 321q23 0 68.5 1.5
t68.5 1.5q286 0 345 -250l39 -174q26 -108 56 -146q43 -54 139 -54l144 621h384l-144 -621q95 1 164 61q38 34 113 141q37 58 114 172q92 132 192 189q107 61 262 61q26 0 78.5 -1.5t78.5 -1.5z" />
    <glyph glyph-name="uni0497" unicode="&#x497;" horiz-adv-x="2046" 
d="M2080 1123l-66 -289h-93q-66 0 -117 -43q-21 -18 -69 -87q-72 -104 -141 -138l167 -324h193l-120 -520h-323l64 278h-69l-220 448h-108l-104 -448h-360l104 448h-101l-382 -448h-417l523 590q-37 33 -53 112q-8 39 -11 46q-6 20 -23 42q-34 44 -100 44h-101l67 289
q21 0 63.5 1t63.5 1q116 0 182 -42q71 -45 106 -151q13 -43 41 -128.5t64.5 -110t126.5 -24.5l105 454h360l-105 -454q92 1 136 32q25 18 95 107q32 44 98 131q80 102 163.5 144t212.5 42q25 0 74 -1t74 -1z" />
    <glyph glyph-name="uni049A" unicode="&#x49a;" horiz-adv-x="1579" 
d="M1706 1489l-73 -317h-101q-75 0 -135 -45q-44 -33 -134 -151q-127 -167 -231 -213l273 -480h228l-144 -625h-355l79 342h-70l-336 605h-122l-140 -605h-386l343 1489h386l-141 -610q103 5 172 59q37 29 126 140q43 56 130 167q119 150 228 203q91 44 253 44q25 0 75 -1.5
t75 -1.5z" />
    <glyph glyph-name="uni049B" unicode="&#x49b;" horiz-adv-x="1374" 
d="M1425 1123l-66 -289h-90q-94 0 -180 -126q-39 -57 -52 -72q-28 -35 -66 -58l159 -336h188l-120 -520h-323l64 278h-73l-200 448h-161l-103 -448h-362l259 1123h362l-105 -454q99 1 144 28q36 22 104 108q7 9 50 67l47 63q76 102 162.5 146t213.5 44q25 0 74 -1t74 -1z
" />
    <glyph glyph-name="uni049C" unicode="&#x49c;" horiz-adv-x="1579" 
d="M1706 1489l-73 -317h-101q-75 0 -135 -45q-44 -33 -134 -151q-127 -167 -231 -213l434 -763h-423l-277 499l-66 -287h-113l90 393h-92l-140 -605h-386l343 1489h386l-141 -610q56 2 97 16l93 400h113l-67 -291q8 9 192 241q119 150 228 203q91 44 253 44q25 0 75 -1.5
t75 -1.5z" />
    <glyph glyph-name="uni049D" unicode="&#x49d;" horiz-adv-x="1374" 
d="M1425 1123l-66 -289h-90q-94 0 -180 -126q-39 -57 -52 -72q-28 -35 -66 -58l274 -578h-379l-171 384l-67 -287h-113l81 351h-91l-103 -448h-362l259 1123h362l-105 -454q55 1 92 8l82 352h115l-57 -244l16 20q5 7 50 67l47 63q76 102 162.5 146t213.5 44q25 0 74 -1
t74 -1z" />
    <glyph glyph-name="uni04A2" unicode="&#x4a2;" horiz-adv-x="1715" 
d="M1740 1489l-279 -1206h142l-144 -625h-355l79 342h-173l152 658h-565l-152 -658h-386l344 1489h386l-127 -548h565l127 548h386z" />
    <glyph glyph-name="uni04A3" unicode="&#x4a3;" horiz-adv-x="1474" 
d="M1435 1123l-203 -881h114l-120 -520h-323l64 278h-153l113 486h-413l-112 -486h-362l259 1123h361l-90 -394h412l91 394h362z" />
    <glyph glyph-name="uni04A8" unicode="&#x4a8;" horiz-adv-x="1754" 
d="M521 598q0 -83 17 -149t54 -112t95 -71t141 -26q-42 63 -66 138.5t-24 165.5q0 174 46.5 319.5t130 251t199.5 164t255 58.5q74 0 142 -18t120.5 -59.5t83.5 -109.5t31 -168q0 -116 -23 -221.5t-65 -198.5t-101 -173.5t-130 -146.5q10 -1 20 -1h21q42 0 75 7.5t75 24.5h9
l-67 -286q-56 -10 -105.5 -14t-106.5 -4q-66 0 -134 15.5t-133 44.5q-81 -29 -164 -44.5t-166 -15.5q-149 0 -266.5 42.5t-199 120t-124.5 186t-43 239.5q0 140 32.5 265.5t91.5 232.5t142 193t183.5 146.5t216 93t240.5 32.5q18 0 31.5 -2t26.5 -5l-66 -284h-6q-10 3 -16 4
t-16 1q-76 -1 -139.5 -30t-114 -77.5t-89 -112.5t-64 -134.5t-38 -143t-12.5 -138.5zM1107 599q0 -69 11 -124.5t36 -98.5q54 48 99.5 110.5t78 133.5t50.5 150t18 160q0 59 -19 93.5t-60 34.5q-32 0 -60 -23t-52 -60.5t-43 -85.5t-32 -99t-20 -101t-7 -90z" />
    <glyph glyph-name="uni04A9" unicode="&#x4a9;" horiz-adv-x="1389" 
d="M1330 692q0 -142 -53 -266.5t-145 -221.5h9q30 0 57.5 5t54.5 15h9l-56 -243q-35 -6 -69 -9t-72 -3q-62 0 -118 11t-107 31q-62 -22 -126.5 -34t-133.5 -12q-108 0 -200.5 28t-160.5 84.5t-106.5 143t-38.5 203.5q0 165 52 300t147 231t229 148.5t298 52.5q13 0 34 -3
l-58 -251h-10q-12 3 -25 3q-81 0 -143 -40t-104 -106.5t-63.5 -153t-21.5 -180.5q0 -102 52.5 -160.5t166.5 -65.5q-26 48 -39.5 104t-13.5 121q0 99 30.5 198t90.5 178t149 128.5t206 49.5q54 0 104.5 -17t89 -52t62 -89t23.5 -128zM858 460q0 -51 9.5 -93.5t33.5 -75.5
q68 59 111 151.5t43 216.5q0 41 -13.5 66t-40.5 25q-30 0 -56 -25t-45.5 -66t-30.5 -93t-11 -106z" />
    <glyph glyph-name="uni04AC" unicode="&#x4ac;" horiz-adv-x="1396" 
d="M1504 1201h-464l-212 -918h142l-144 -625h-355l79 342h-173l277 1201h-464l66 288h1314z" />
    <glyph glyph-name="uni04AD" unicode="&#x4ad;" horiz-adv-x="1096" 
d="M1160 879h-358l-147 -637h114l-120 -520h-323l64 278h-153l203 879h-358l56 244h1078z" />
    <glyph glyph-name="uni04AE" unicode="&#x4ae;" horiz-adv-x="1509" 
d="M1715 1489l-759 -913l-133 -576h-386l129 558l-342 931h411l191 -583l445 583h444z" />
    <glyph glyph-name="uni04AF" unicode="&#x4af;" horiz-adv-x="1333" 
d="M1423 1123l-720 -1093l-105 -442h-362l105 442l-199 1093h368l113 -692l420 692h380z" />
    <glyph glyph-name="uni04B0" unicode="&#x4b0;" horiz-adv-x="1509" 
d="M1715 1489l-759 -913l-19 -81h306l-50 -217h-306l-64 -278h-386l64 278h-302l50 217h302l15 63l-342 931h411l191 -583l445 583h444z" />
    <glyph glyph-name="uni04B1" unicode="&#x4b1;" horiz-adv-x="1333" 
d="M1423 1123l-720 -1093h323l-50 -217h-325l-53 -225h-362l53 225h-307l50 217h309l-199 1093h368l113 -692l420 692h380z" />
    <glyph glyph-name="uni04B2" unicode="&#x4b2;" horiz-adv-x="1564" 
d="M1746 1489l-701 -742l227 -464h226l-144 -625h-355l79 342h-87l-223 495l-450 -495h-424l716 768l-361 721h418l219 -469l435 469h425z" />
    <glyph glyph-name="uni04B3" unicode="&#x4b3;" horiz-adv-x="1370" 
d="M1469 1123l-575 -563l182 -318h194l-120 -520h-323l64 278h-65l-181 346l-334 -346h-415l583 571l-316 552h388l179 -342l323 342h416z" />
    <glyph glyph-name="uni04B4" unicode="&#x4b4;" horiz-adv-x="2028" 
d="M1504 1201h-464l-212 -918h562l278 1206h385l-277 -1206h147l-144 -625h-355l79 342h-1126l277 1201h-464l66 288h1314z" />
    <glyph glyph-name="uni04B5" unicode="&#x4b5;" horiz-adv-x="1668" 
d="M1110 879h-308l-147 -637h409l203 881h362l-203 -881h116l-120 -520h-323l64 278h-926l202 879h-357l56 244h1028z" />
    <glyph glyph-name="uni04B8" unicode="&#x4b8;" horiz-adv-x="1612" 
d="M1637 1489l-344 -1489h-386l128 551q-127 -24 -206 -36l-65 -280h-113l62 269q-44 -2 -99 -2q-171 0 -279 72q-127 83 -127 246q0 75 17 149l119 520h388l-81 -353q-26 -113 -26 -173q0 -106 81 -146q30 -15 74 -23l86 369h113l-87 -376q104 1 200 17l159 685h386z" />
    <glyph glyph-name="uni04B9" unicode="&#x4b9;" horiz-adv-x="1401" 
d="M1362 1123l-259 -1123h-362l89 386q-79 -15 -147 -25l-46 -196h-113l43 182q-54 -5 -99 -5q-139 0 -227 55q-106 67 -106 197q0 31 6 69q3 21 9 57l93 403h364l-60 -258q-20 -86 -20 -138q0 -66 45 -101q21 -16 53 -24l66 283h113l-68 -294h18q62 0 125 9l121 523h362z
" />
    <glyph glyph-name="uni04BA" unicode="&#x4ba;" horiz-adv-x="1612" 
d="M1488 669q0 -75 -17 -149l-119 -520h-388l81 353q26 113 26 173q0 89 -55 130q-62 46 -205 46q-105 0 -207 -17l-159 -685h-386l344 1489h386l-128 -551q258 49 421 49q172 0 280 -71q126 -84 126 -247z" />
    <glyph glyph-name="uni04BB" unicode="&#x4bb;" horiz-adv-x="1459" 
d="M1356 869q0 -24 -4 -62t-13 -76l-169 -731h-364l129 557q14 64 22 108t8 79q0 67 -33.5 96.5t-121.5 29.5q-43 0 -99 -18.5t-125 -55.5l-184 -796h-362l359 1556h362l-128 -557q110 73 202 114t202 41q153 0 236 -74.5t83 -210.5z" />
    <glyph glyph-name="uni04BC" unicode="&#x4bc;" horiz-adv-x="2078" 
d="M1426 1520q136 0 249.5 -36t195.5 -107.5t127.5 -178.5t45.5 -250q0 -56 -8 -116.5t-22 -127.5l-14 -65h-1111q0 -9 -0.5 -24t-0.5 -23q0 -175 83 -261.5t258 -86.5q173 0 325.5 53.5t291.5 144.5h35l-81 -346q-84 -32 -158 -56t-148 -39.5t-154.5 -23t-178.5 -7.5
q-169 0 -296 41t-211.5 118t-126.5 189t-42 254q0 12 1 29.5t3 37.5q-78 8 -145.5 30t-117.5 61t-79 96t-29 135q0 64 17.5 120.5t46.5 107.5h313v-13q-27 -35 -45 -75t-18 -83t24.5 -71.5t86.5 -35.5q48 134 127.5 245.5t190 192.5t252 126t313.5 45zM949 914h713
q3 27 3 53q0 63 -18 114.5t-53.5 88t-89 56t-124.5 19.5q-78 0 -145 -24.5t-121 -69t-95.5 -105t-69.5 -132.5z" />
    <glyph glyph-name="uni04BD" unicode="&#x4bd;" horiz-adv-x="1614" 
d="M928 -30q-287 0 -443 127t-156 351q0 26 1 51q-57 6 -110 23q-54 17 -92 47.5t-59 75.5t-21 105q0 46 11 87.5t31 78.5h233l-2 -9q-20 -27 -33 -56.5t-13 -61.5q0 -34 22.5 -56t73.5 -27q4 11 9 23q51 128 147 225q92 94 230 149t303 55q251 0 378.5 -101.5t127.5 -299.5
q0 -68 -13.5 -133t-35.5 -129h-834v-23q0 -117 82 -183t251 -66q118 0 223.5 40t183.5 89h40l-67 -289q-105 -46 -221 -69.5t-247 -23.5zM1203 706q3 18 4.5 33t1.5 31q0 79 -49 121t-141 42q-111 0 -186.5 -60t-114.5 -167h485z" />
    <glyph glyph-name="uni04BE" unicode="&#x4be;" horiz-adv-x="2078" 
d="M1426 1520q136 0 249.5 -36t195.5 -107.5t127.5 -178.5t45.5 -250q0 -56 -8 -116.5t-22 -127.5l-14 -65h-1111q0 -9 -0.5 -24t-0.5 -23q0 -175 83 -261.5t258 -86.5q173 0 325.5 53.5t291.5 144.5h35l-81 -346q-84 -32 -158 -56t-148 -39.5t-154.5 -23t-178.5 -7.5
q-169 0 -296 41t-211.5 118t-126.5 189t-42 254q0 12 1 29.5t3 37.5q-78 8 -145.5 30t-117.5 61t-79 96t-29 135q0 64 17.5 120.5t46.5 107.5h313v-13q-27 -35 -45 -75t-18 -83t24.5 -71.5t86.5 -35.5q48 134 127.5 245.5t190 192.5t252 126t313.5 45zM949 914h713
q3 27 3 53q0 63 -18 114.5t-53.5 88t-89 56t-124.5 19.5q-78 0 -145 -24.5t-121 -69t-95.5 -105t-69.5 -132.5zM947 0h353l-81 -352h-353z" />
    <glyph glyph-name="uni04BF" unicode="&#x4bf;" horiz-adv-x="1614" 
d="M928 -30q-287 0 -443 127t-156 351q0 26 1 51q-57 6 -110 23q-54 17 -92 47.5t-59 75.5t-21 105q0 46 11 87.5t31 78.5h233l-2 -9q-20 -27 -33 -56.5t-13 -61.5q0 -34 22.5 -56t73.5 -27q4 11 9 23q51 128 147 225q92 94 230 149t303 55q251 0 378.5 -101.5t127.5 -299.5
q0 -68 -13.5 -133t-35.5 -129h-834v-23q0 -117 82 -183t251 -66q118 0 223.5 40t183.5 89h40l-67 -289q-105 -46 -221 -69.5t-247 -23.5zM1203 706q3 18 4.5 33t1.5 31q0 79 -49 121t-141 42q-111 0 -186.5 -60t-114.5 -167h485zM1023 0l-65 -280h-320l65 280h320z" />
    <glyph glyph-name="uni04D8" unicode="&#x4d8;" horiz-adv-x="1652" 
d="M1617 989q0 -421 -249 -713q-261 -307 -671 -307q-265 0 -417 130q-161 136 -161 391q0 144 65 426h1047q0 175 -64 250q-68 79 -236 79q-133 0 -279 -69q-64 -30 -184 -114h-39l78 340q268 118 538 118q282 0 433 -153q139 -140 139 -378zM1168 613h-664q-5 -57 -5 -93
q0 -122 67 -196t186 -74q145 0 263 114q101 98 153 249z" />
    <glyph glyph-name="uni04D9" unicode="&#x4d9;" horiz-adv-x="1360" 
d="M1285 680q0 -305 -198 -506q-201 -204 -533 -204q-506 0 -506 401q0 119 49 262h834v23q0 249 -333 249q-202 0 -407 -129h-40l67 289q212 93 468 93q259 0 416 -107q183 -124 183 -371zM896 422h-485q-6 -36 -6 -64q0 -163 190 -163q218 0 301 227z" />
    <glyph glyph-name="uni04E8" unicode="&#x4e8;" horiz-adv-x="1741" 
d="M1707 935q0 -399 -242 -669q-266 -297 -697 -297q-292 0 -466 147q-184 157 -184 444q0 402 255 677q262 283 683 283q291 0 465 -145q186 -155 186 -440zM1303 921q-4 148 -74 232q-77 92 -221 92q-191 0 -333 -172q-53 -64 -90 -152h718zM1256 609h-734v-20
q-2 -169 79 -258q78 -87 217 -87q201 0 340 183q61 81 98 182z" />
    <glyph glyph-name="uni04E9" unicode="&#x4e9;" horiz-adv-x="1404" 
d="M1335 712q0 -325 -202 -533q-208 -214 -540 -214q-234 0 -370 107q-149 118 -149 345q0 314 198 523q206 218 544 218q234 0 369 -104q150 -115 150 -342zM960 677v22q2 214 -188 214q-143 0 -235 -142q-27 -42 -46 -94h469zM927 466h-477q-1 -19 -1 -42q0 -214 191 -214
q138 0 227 134q38 57 60 122z" />
    <glyph glyph-name="uni04F6" unicode="&#x4f6;" horiz-adv-x="1305" 
d="M1410 1201h-688l-212 -918h142l-144 -625h-355l79 342h-173l344 1489h1074z" />
    <glyph glyph-name="uni04F7" unicode="&#x4f7;" horiz-adv-x="1088" 
d="M1150 879h-546l-147 -637h114l-120 -520h-323l64 278h-153l260 1123h908z" />
    <glyph glyph-name="uni051A" unicode="&#x51a;" horiz-adv-x="1741" 
d="M1707 935q0 -139 -36 -279t-112 -263q-73 -118 -183 -213.5t-249 -147.5q-4 -14 -6 -33.5t-2 -36.5q0 -68 42.5 -98.5t145.5 -30.5q43 0 100.5 13.5t83.5 25.5h38l-61 -264q-59 -13 -120 -23t-169 -10q-204 0 -308.5 79t-104.5 228q0 25 2.5 46t5.5 41h-3h-3
q-305 0 -477.5 157.5t-172.5 433.5q0 194 66 369t189 308q120 129 297 206t386 77q306 0 478.5 -158t172.5 -427zM1158 427q68 89 106.5 206.5t38.5 270.5q0 160 -76.5 250.5t-218.5 90.5q-93 0 -177.5 -42.5t-155.5 -129.5q-69 -83 -111 -206.5t-42 -277.5
q0 -171 78.5 -258t217.5 -87q96 0 185 47.5t155 135.5z" />
    <glyph glyph-name="uni051B" unicode="&#x51b;" horiz-adv-x="1432" 
d="M971 861q-29 14 -76 25.5t-83 11.5q-96 0 -162.5 -41t-109.5 -103q-44 -61 -68.5 -146t-24.5 -177q0 -93 41 -144t149 -51q49 0 103.5 22t103.5 52zM1394 1123l-355 -1535h-362l121 522q-43 -27 -92.5 -57.5t-85.5 -45.5q-51 -22 -96 -30t-97 -8q-163 0 -260.5 106
t-97.5 301q0 168 55 311t146 248q91 104 210 161.5t241 57.5q91 0 162.5 -21.5t134.5 -59.5l25 50h351z" />
    <glyph glyph-name="uni051C" unicode="&#x51c;" horiz-adv-x="2311" 
d="M2459 1489l-724 -1489h-412l-64 987l-483 -987h-428l-68 1489h401l3 -1025l500 1025h383l45 -1025l456 1025h391z" />
    <glyph glyph-name="uni051D" unicode="&#x51d;" horiz-adv-x="2006" 
d="M2091 1123l-587 -1123h-382l-75 757l-379 -757h-387l-106 1123h368l33 -774l399 774h319l69 -774l348 774h380z" />
    <glyph glyph-name="uni0531" unicode="&#x531;" horiz-adv-x="1729" 
d="M917 425h143q14 29 26 62t21 72l214 930h386l-219 -950q-19 -83 -54 -159q46 -16 93 -37.5t101 -49.5l-90 -389h-34q-52 68 -123.5 124.5t-165.5 82.5q-97 -69 -224.5 -105.5t-288.5 -36.5q-281 0 -420.5 102t-139.5 301q0 77 21 167l219 950h386l-214 -930
q-16 -67 -16 -123q0 -93 52.5 -137.5t168.5 -44.5q35 0 65.5 3.5t57.5 11.5z" />
    <glyph glyph-name="uni0532" unicode="&#x532;" horiz-adv-x="1637" 
d="M1552 818h-386l26 111q16 67 16 122q0 97 -54.5 141t-167.5 44q-146 0 -228.5 -76t-118.5 -231l-63 -273h966l-67 -288h-966l-84 -368h-386l219 951q31 138 98 244t166.5 178t232 109.5t296.5 37.5q276 0 414 -104t138 -302q0 -38 -4.5 -78.5t-15.5 -85.5z" />
    <glyph glyph-name="uni0533" unicode="&#x533;" horiz-adv-x="1695" 
d="M1716 656l-67 -288h-269l-84 -368h-386l84 368h-286q-121 0 -223.5 27t-177.5 81.5t-117 136t-42 191.5q0 67 18 147q34 146 112 253.5t186 177.5t239 104t271 34q122 0 226 -25.5t179.5 -76t118 -126.5t42.5 -177q0 -59 -15 -123l-78 -336h269zM1134 972q9 42 9 77
q0 94 -62 140.5t-172 46.5q-65 0 -121.5 -17t-102.5 -51.5t-79 -88.5t-50 -127q-12 -51 -12 -93q0 -102 61 -152.5t170 -50.5h286z" />
    <glyph glyph-name="uni0534" unicode="&#x534;" horiz-adv-x="1650" 
d="M1671 656l-67 -288h-269l-84 -368h-386l214 929q8 34 12 64t4 57q0 94 -53 140t-168 46q-72 0 -128.5 -17.5t-99 -55t-72 -95.5t-48.5 -139l-26 -111h-386l31 132q32 138 99 244.5t166.5 178.5t232 109.5t296.5 37.5q276 0 413.5 -103.5t137.5 -301.5q0 -38 -4.5 -78.5
t-15.5 -85.5l-68 -295h269z" />
    <glyph glyph-name="uni0535" unicode="&#x535;" horiz-adv-x="1653" 
d="M1488 539q-32 -138 -98.5 -244.5t-167 -178.5t-233.5 -109.5t-296 -37.5q-275 0 -413 103.5t-138 300.5q0 76 21 165l219 951h386l-84 -366h966l-67 -288h-966l-63 -275q-16 -67 -16 -121q0 -94 53 -140t168 -46q143 0 227 73t121 234l25 111h386z" />
    <glyph glyph-name="uni0536" unicode="&#x536;" horiz-adv-x="1556" 
d="M764 1231q-60 0 -122.5 -14.5t-123 -40.5t-118 -62.5t-106.5 -80.5h-44l81 353q63 39 131 64.5t137.5 41t140.5 22t140 6.5q144 0 260.5 -38.5t199 -107t127 -164t44.5 -209.5q0 -57 -14.5 -122t-42 -132.5t-68 -134.5t-93 -127t-116 -110t-137.5 -84l-2 -7h319l-65 -284
h-1312l93 403h373l-28 -119h93q82 0 170.5 32.5t167.5 95.5t141 155.5t90 212.5q9 38 13 73t4 67q0 82 -26 141t-71 96.5t-106 55.5t-130 18z" />
    <glyph glyph-name="uni0537" unicode="&#x537;" horiz-adv-x="1470" 
d="M1107 0h-1052l343 1489h386l-84 -366h809l-67 -288h-809l-126 -547h666z" />
    <glyph glyph-name="uni0538" unicode="&#x538;" horiz-adv-x="1653" 
d="M1552 818h-386l26 111q16 67 16 122q0 97 -54.5 141t-167.5 44q-146 0 -228.5 -76t-118.5 -231l-148 -641h966l-66 -288h-1352l219 951q31 138 98 244t166.5 178t232 109.5t296.5 37.5q276 0 414 -104t138 -302q0 -38 -4.5 -78.5t-15.5 -85.5z" />
    <glyph glyph-name="uni0539" unicode="&#x539;" horiz-adv-x="2067" 
d="M1197 90q-115 0 -205 25t-152 71t-94.5 110t-32.5 142q0 43 11 93q22 97 72.5 173.5t121.5 129.5t160 81.5t189 28.5h298l5 21q7 28 7 57q0 103 -101.5 163t-307.5 60q-109 0 -199 -21t-158 -63t-113.5 -105.5t-64.5 -148.5l-209 -907h-386l208 905q26 115 81.5 205.5
t131 158.5t167.5 115.5t192.5 77t205.5 43t207 13.5q88 0 176.5 -9t171 -30t154 -54.5t124 -82t83 -113.5t30.5 -149q-1 -27 -3.5 -56t-10.5 -61l-5 -19h152l-66 -288h-152l-31 -136q-21 -94 -77.5 -173t-142 -136t-196.5 -89t-241 -32zM1115 522q-6 -24 -6 -44
q0 -60 41.5 -87t110.5 -27q80 0 134 37.5t73 118.5l31 136h-169q-30 0 -64 -5.5t-64.5 -20.5t-54 -41t-32.5 -67z" />
    <glyph glyph-name="uni053A" unicode="&#x53a;" horiz-adv-x="1693" 
d="M1486 835l-78 -338q-32 -140 -108 -240t-182 -164t-235.5 -94t-268.5 -30q-120 0 -222.5 22.5t-178 71.5t-118 127t-42.5 189q0 36 5 75t15 83q34 147 112.5 256.5t186.5 183t238.5 110t270.5 36.5h286l84 366h386l-84 -366h269l-67 -288h-269zM1100 835h-286
q-65 0 -122.5 -19t-103.5 -56.5t-79.5 -93.5t-50.5 -129q-6 -25 -8.5 -47t-2.5 -42q0 -101 63 -148t170 -47q64 0 121 16.5t102 49.5t77 82.5t47 115.5z" />
    <glyph glyph-name="uni053B" unicode="&#x53b;" horiz-adv-x="1580" 
d="M441 0h-386l343 1489h386l-96 -416h5q23 13 58 25.5t77.5 23t92 17t101.5 6.5q106 0 198 -31.5t160 -89t107.5 -139.5t39.5 -184q0 -59 -15 -125l-67 -291h-386l58 250q11 50 11 90q0 63 -24 110t-66 78t-100.5 46.5t-127.5 15.5q-19 0 -41.5 -2t-46 -6.5t-46.5 -11
t-42 -15.5z" />
    <glyph glyph-name="uni053C" unicode="&#x53c;" horiz-adv-x="1246" 
d="M1131 0h-1076l343 1489h386l-277 -1201h690z" />
    <glyph glyph-name="uni053D" unicode="&#x53d;" horiz-adv-x="2021" 
d="M441 0h-386l343 1489h386l-84 -366h597l-116 -501q-4 -15 -4 -33q0 -54 39.5 -89.5t106.5 -35.5q38 0 73.5 12.5t64 33.5t48.5 50t28 62l116 501h386l-88 -382q-32 -137 -94 -241.5t-150.5 -175.5t-201.5 -107.5t-246 -36.5q-220 0 -339.5 95.5t-119.5 286.5q0 41 6 85
t17 94l21 94h-211z" />
    <glyph glyph-name="uni053E" unicode="&#x53e;" horiz-adv-x="1685" 
d="M319 1489h386l-31 -136h84q69 40 151 71.5t170.5 52.5t180.5 32t181 11q103 0 195.5 -14.5t167.5 -45.5l-90 -387h-27q-39 61 -91 96.5t-104 53t-96.5 22t-66.5 4.5q-28 0 -60.5 -1.5t-60.5 -5.5l-1 -4q79 -29 147.5 -75.5t119.5 -109t80 -141t29 -170.5q0 -68 -16 -138
q-26 -111 -73.5 -201t-112 -160.5t-143 -122.5t-165.5 -85.5t-179.5 -50t-185.5 -16.5q-121 0 -229.5 28t-190 86.5t-129.5 149t-48 215.5q0 79 19 160.5t56 161.5t91.5 157.5t124.5 148.5h-178zM511 615q-13 -53 -13 -102q0 -67 22.5 -116t61 -81t88.5 -47.5t106 -15.5
q65 0 130 21.5t120.5 65t98 109.5t63.5 155q12 51 12 100q0 68 -24.5 128.5t-74 108t-125 80t-177.5 45.5q-104 -81 -179.5 -194.5t-108.5 -256.5z" />
    <glyph glyph-name="uni053F" unicode="&#x53f;" horiz-adv-x="1626" 
d="M1200 1123h386l-259 -1123h-386l96 416h-5q-16 -10 -49.5 -22.5t-78.5 -23.5t-97 -18.5t-104 -7.5q-105 0 -197.5 28t-161.5 83t-108.5 135.5t-39.5 185.5q0 66 16 137l133 576h386l-123 -535q-13 -53 -13 -102q0 -66 23.5 -112t64 -75.5t95 -43t116.5 -13.5q47 0 96 10
t100 31z" />
    <glyph glyph-name="uni0540" unicode="&#x540;" horiz-adv-x="1366" 
d="M714 1242q-44 0 -97.5 -4.5t-108 -14t-105.5 -24t-90 -34.5h-30l73 314q50 12 114 20t126.5 12.5t115.5 6.5t81 2q115 0 213.5 -17t170.5 -53t113 -92.5t41 -135.5q0 -78 -28 -143.5t-77.5 -116.5t-116 -87.5t-143.5 -56.5l-1 -8q114 -27 174 -100t60 -176q0 -43 -10 -86
l-103 -448h-374l105 457q2 11 3.5 20t1.5 19q0 41 -21.5 71.5t-58 50t-83.5 29t-98 9.5h-448l66 288h429q54 0 106.5 4t96 19t75 45.5t43.5 84.5q3 15 3 29q0 37 -22 59.5t-55 35t-71 17t-70 4.5z" />
    <glyph glyph-name="uni0541" unicode="&#x541;" horiz-adv-x="1583" 
d="M546 647q63 0 120.5 -5.5t115 -17.5t117 -31.5t126.5 -47.5q26 39 45.5 86.5t32.5 96t19.5 95.5t6.5 86q0 86 -27 147t-72.5 99.5t-105 56t-123.5 17.5q-71 0 -137.5 -16t-127.5 -43t-114.5 -62t-98.5 -73h-45l81 350q79 46 152 72.5t142.5 40t136.5 17t134 3.5
q127 0 239 -35.5t195.5 -102.5t131.5 -162t48 -215q0 -74 -19.5 -152t-56 -154.5t-88.5 -147t-116 -129.5q33 -21 62 -44.5t49 -42.5l-85 -369h-42q-35 49 -97.5 106t-146.5 111q-71 -49 -146 -88.5t-150 -67t-148.5 -42t-142.5 -14.5q-80 0 -147.5 15.5t-117.5 47.5
t-78 79.5t-28 112.5q0 35 9 76q17 73 56 136t101 110t147 74t193 27zM465 208q77 0 154.5 23t151.5 67q-75 29 -153 46t-156 17q-36 0 -61 -8t-40 -21t-21.5 -29t-6.5 -31q0 -13 6 -24.5t21 -20.5t40.5 -14t64.5 -5z" />
    <glyph glyph-name="uni0542" unicode="&#x542;" horiz-adv-x="1674" 
d="M1610 288l-66 -288h-655l214 929q8 34 12 64t4 57q0 94 -53 140t-168 46q-72 0 -128.5 -17.5t-99 -55t-72 -95.5t-48.5 -139l-26 -111h-386l31 132q32 138 99 244.5t166.5 178.5t232 109.5t296.5 37.5q276 0 413.5 -103.5t137.5 -301.5q0 -38 -4.5 -78.5t-15.5 -85.5
l-153 -663h269z" />
    <glyph glyph-name="uni0543" unicode="&#x543;" horiz-adv-x="1630" 
d="M233 835l67 288h256q75 85 160 158t179.5 126t198 83t215.5 30q72 0 150 -12.5t155 -38.5l-85 -365h-44q-21 37 -53 62.5t-66.5 41t-67 22t-54.5 6.5q-94 0 -178.5 -39t-159.5 -108q109 -30 202 -86t161 -136.5t106.5 -184.5t38.5 -230q0 -96 -24 -202l-57 -250h-1299
l44 192q15 67 40 144.5t59 160t76.5 168.5t93.5 170h-114zM486 287h526q19 82 19 152q0 89 -28 154t-74.5 111t-107.5 73.5t-127 41.5q-73 -125 -125.5 -262.5t-82.5 -269.5z" />
    <glyph glyph-name="uni0544" unicode="&#x544;" horiz-adv-x="1763" 
d="M1976 1489l-66 -288h-269l-153 -662q-32 -138 -99 -244.5t-167 -178.5t-233 -109.5t-296 -37.5q-275 0 -413 103.5t-138 300.5q0 76 21 165l219 951h386l-214 -929q-16 -67 -16 -121q0 -94 53 -140t168 -46q72 0 128.5 17.5t99 55t72 95.5t48.5 139l214 929h655z" />
    <glyph glyph-name="uni0545" unicode="&#x545;" horiz-adv-x="1550" 
d="M1422 444q-25 -110 -96 -197.5t-181 -148.5t-256.5 -94t-321.5 -33q-162 0 -293.5 26t-238.5 71l78 336h36q37 -34 96 -62.5t126.5 -49.5t138 -32.5t131.5 -11.5q91 0 164 19t124 54t78 84.5t27 111.5q0 42 -21.5 69t-60.5 42.5t-94 21.5t-122 6h-540l66 288h530
q73 0 126 9t89.5 27.5t57.5 46.5t30 67q4 16 4 32q0 62 -64.5 88t-186.5 26q-77 0 -142 -10t-123 -27t-111.5 -39t-107.5 -47h-37l70 303q69 26 142.5 44.5t148 30.5t147.5 18t142 6q271 0 404.5 -76t133.5 -212q0 -77 -28.5 -143.5t-77 -119t-114.5 -89.5t-141 -54l-1 -4
q46 -8 95 -28t90 -55.5t67.5 -86.5t26.5 -120q0 -43 -10 -87z" />
    <glyph glyph-name="uni0546" unicode="&#x546;" horiz-adv-x="1684" 
d="M147 1201l66 288h655l-214 -929q-16 -67 -16 -121q0 -94 53 -140t168 -46q143 0 227 73t121 234l25 111h386l-30 -132q-32 -138 -98.5 -244.5t-167 -178.5t-233.5 -109.5t-296 -37.5q-275 0 -413 103.5t-138 300.5q0 76 21 165l153 663h-269z" />
    <glyph glyph-name="uni0547" unicode="&#x547;" horiz-adv-x="1517" 
d="M1504 1178l-85 -369h-26l-295 177q-8 0 -16.5 0.5t-17.5 0.5q-56 0 -116.5 -9t-120 -29.5t-116 -52t-103 -77t-82 -105t-52.5 -134.5q-7 -29 -7 -60q0 -60 27 -110t73 -86t106.5 -56t127.5 -20q79 0 148 13t132 38.5t120 63.5t112 87h37l-80 -350q-72 -35 -144 -60
t-141 -41t-132.5 -23t-118.5 -7q-147 0 -266 31t-204 91t-131 148t-46 202q0 101 32.5 191t88.5 166.5t130 138t157 104t170 65.5t169 23l1 4q-13 8 -38.5 21t-55.5 25.5t-62 21.5t-59 9q-76 0 -132.5 -14.5t-101.5 -42.5h-39l70 306q72 27 148.5 44t176.5 17q46 0 96 -10
t98 -25.5t91 -34t73 -36.5z" />
    <glyph glyph-name="uni0548" unicode="&#x548;" horiz-adv-x="1663" 
d="M1364 0h-386l214 929q16 67 16 122q0 97 -54.5 141t-167.5 44q-146 0 -228.5 -76t-118.5 -231l-214 -929h-386l219 951q31 138 98 244t166.5 178t232 109.5t296.5 37.5q276 0 414 -104t138 -302q0 -38 -4.5 -78.5t-15.5 -85.5z" />
    <glyph glyph-name="uni0549" unicode="&#x549;" horiz-adv-x="1494" 
d="M166 303l83 359h45l237 -146q91 0 182 24t168 70.5t133 115.5t77 159q8 37 8 68q0 57 -22.5 107t-66 88t-108.5 60t-150 22q-63 0 -127 -15.5t-125.5 -42.5t-119.5 -63t-109 -76h-41l81 353q65 39 129 64.5t131 40.5t138 21.5t151 6.5q131 0 247 -31.5t203 -92.5
t137.5 -151t50.5 -208q0 -96 -29 -181t-80 -157.5t-119 -130.5t-146.5 -100.5t-162.5 -67t-167 -30.5l-1 -4l138 -86l-89 -384h-48q-29 47 -68.5 74.5t-73.5 47.5z" />
    <glyph glyph-name="uni054A" unicode="&#x54a;" horiz-adv-x="1905" 
d="M1053 443h-386l184 796q-86 0 -147 -36t-103 -92t-67.5 -123t-39.5 -129l-5 -20h-386l5 19q18 79 57.5 159t100.5 153.5t143.5 137.5t188 111t233.5 74t279 27q193 0 327.5 -45t218.5 -119.5t122 -171t38 -199.5q0 -71 -17 -145l-193 -840h-386l184 801q11 45 18.5 95.5
t7.5 101.5q0 48 -9 91.5t-31 76.5t-59.5 53t-93.5 20z" />
    <glyph glyph-name="uni054B" unicode="&#x54b;" horiz-adv-x="1646" 
d="M245 1107q18 80 69 154t138.5 131t215 91.5t300.5 34.5q141 0 252.5 -39t189.5 -108.5t119 -164t41 -205.5q0 -118 -41.5 -228.5t-108.5 -204.5t-151.5 -166t-170.5 -114l-1 -4h322l-65 -284h-1332l93 403h373l-28 -119h119q67 0 132 17.5t124 48t109.5 72t87.5 89.5
q-38 37 -92 65.5t-117 52.5t-131 46t-133.5 46t-124 52.5t-102.5 65t-70 84t-26 109.5q0 34 9 75zM865 1240q-49 0 -90.5 -10t-71.5 -29t-47 -46t-17 -61q0 -38 30 -67.5t77.5 -55t106 -47.5t115.5 -44t106.5 -45.5t78.5 -50.5l5 1q5 29 8 56t3 53q0 85 -26.5 150t-70 108.5
t-98 65.5t-109.5 22z" />
    <glyph glyph-name="uni054C" unicode="&#x54c;" horiz-adv-x="1763" 
d="M1784 656l-67 -288h-269l-84 -368h-386l214 929q8 34 12 64t4 57q0 94 -53 140t-168 46q-144 0 -227.5 -73t-120.5 -234l-214 -929h-386l219 950q64 276 265.5 423t528.5 147q276 0 413.5 -103.5t137.5 -301.5q0 -38 -4.5 -78.5t-15.5 -85.5l-68 -295h269z" />
    </font>
</defs>
</svg>
